<?xml version="1.0" standalone="no"?>
<!DOCTYPE svg PUBLIC "-//W3C//DTD SVG 1.1//EN" "http://www.w3.org/Graphics/SVG/1.1/DTD/svg11.dtd">
<svg xmlns="http://www.w3.org/2000/svg">
<defs >
<font id="PlayfairDisplay" horiz-adv-x="582" ><font-face
    font-family="Playfair Display Medium"
    units-per-em="1000"
    panose-1="0 0 0 0 0 0 0 0 0 0"
    ascent="1082"
    descent="-251"
    alphabetic="0" />
<glyph unicode=" " horiz-adv-x="254" />
<glyph unicode="!" horiz-adv-x="280" d="M102 199Q128 296 142 389T167 564T190 704Q192 719 196 733T209 758T228 775T254 782Q287 782 299 763T305 714Q296 672 274 616T225 492T169 350T120 196L102 199ZM13 40Q13 73 37 98T94 123Q120 123 135 108T151 68Q151
46 140 28T110 -2T68 -14Q43 -14 28 1T13 40Z" />
<glyph unicode="&quot;" horiz-adv-x="328" d="M247 692Q247 668 234 643T200 585T160 508H146Q150 555 150 584T150 633T155 675Q159 702 174 716T209 730Q229 730 238 720T247 692ZM374 692Q374 668 361 643T327 585T287 508H273Q277 555 277 584T277 633T282
675Q286 702 301 716T336 730Q356 730 365 720T374 692Z" />
<glyph unicode="#" horiz-adv-x="634" d="M631 454L623 434H122L130 454H631ZM545 267L535 247H35L44 267H545ZM325 101H301L533 602H557L325 101ZM138 101H114L346 602H370L138 101Z" />
<glyph unicode="$" horiz-adv-x="571" d="M391 840L121 -132H99L369 840H391ZM491 840L221 -132H199L469 840H491ZM365 702Q308 702 270 673T231 582Q231 546 250 514T298 452T361 392T424 331T473 264T492 187Q492 144 476 111T433 53T372 15T300 -7T228 -14Q182
-14 151 -6T98 16T58 42Q35 59 19 87T2 151Q2 185 19 211T67 238Q97 238 111 217T125 166Q125 143 119 122T103 84T84 53Q107 32 143 20T226 7Q272 7 304 19T354 59T371 126Q371 166 354 198T310 259T252 315T194 373T149 440T132 521Q132 573 152 611T205 673T279
710T361 722Q406 722 437 714T491 692T530 666Q551 652 569 623T587 557Q587 523 570 497T521 470Q492 470 478 491T463 542Q463 566 470 586T486 624T505 655Q482 676 446 689T365 702Z" />
<glyph unicode="%" horiz-adv-x="776" d="M317 744Q286 744 263 719T223 657T199 581T191 515Q191 482 203 466T237 449Q268 449 291 473T331 535T355 612T363 679Q363 711 351 727T317 744ZM112 540Q112 578 128 617T172 688T240 741T325 761Q381 761 411 733T442
653Q442 615 426 576T382 504T315 452T230 432Q175 432 144 460T112 540ZM580 298Q549 298 526 274T486 212T462 136T454 69Q454 37 466 20T500 3Q530 3 554 28T594 90T618 166T626 233Q626 266 614 282T580 298ZM375 94Q375 132 391 171T435 243T503 295T588 315Q643
315 674 287T705 207Q705 169 689 130T645 59T578 6T493 -14Q438 -14 407 14T375 94ZM829 824L844 811L11 -55L-4 -42L829 824Z" />
<glyph unicode="&amp;" horiz-adv-x="832" d="M548 213Q539 198 524 182T486 156T427 145Q400 145 375 154T332 186T315 248Q315 310 360 349T484 417Q505 424 537 435T606 459T679 486T745 512Q774 525 798 540T838 575T854 622Q854 659 826 683T755 707Q731
707 724 699Q738 692 745 680T752 654Q752 637 742 623T714 600T678 592Q655 592 640 605T624 641Q624 665 640 682T678 708Q696 716 716 719T754 722Q792 722 820 710T866 671T883 602Q883 562 868 531T820 474T738 426Q711 414 674 400T597 372T520 344T452 319Q430
311 407 299T367 269T351 225Q351 194 375 178T431 162Q462 162 483 173T517 199T534 222L548 213ZM432 562Q458 562 475 576T492 615Q492 646 467 663T403 681Q364 681 332 662T282 610T264 534Q264 517 268 499T282 462Q300 465 318 466T345 468Q381 468 381
447Q381 436 371 431T350 426Q331 426 312 434T281 448Q239 435 207 405T157 335T138 248Q138 187 169 147T255 85T381 64Q437 64 486 76T572 113T631 171T653 250Q653 287 635 325T573 387L587 395Q629 367 651 328T674 238Q674 190 652 145T586 64T479 7T331
-14Q242 -14 176 11T72 84T35 200Q35 261 65 313T147 402T268 456Q230 474 211 503T192 565Q192 610 222 640T298 686T389 702Q447 702 480 679T513 617Q513 580 486 562T431 544L432 562Z" />
<glyph unicode="&apos;" horiz-adv-x="201" d="M247 692Q247 668 234 643T200 585T160 508H146Q150 555 150 584T150 633T155 675Q159 702 174 716T209 730Q229 730 238 720T247 692Z" />
<glyph unicode="(" horiz-adv-x="373" d="M218 -182Q164 -124 123 -65T60 65T37 223Q37 307 70 388T164 546T306 688T482 806L492 793Q385 719 304 632T179 440T134 205Q134 134 145 69T178 -55T236 -169L218 -182Z" />
<glyph unicode=")" horiz-adv-x="373" d="M164 806Q218 749 259 689T322 559T345 401Q345 317 312 236T218 78T76 -64T-100 -182L-110 -169Q-3 -95 78 -8T203 184T248 419Q248 490 237 555T204 679T146 793L164 806Z" />
<glyph unicode="*" horiz-adv-x="491" d="M305 518Q332 574 351 610T376 675Q383 705 374 717T348 729Q334 729 318 717T295 675Q290 647 294 609T302 518H305ZM304 519Q272 560 253 588T211 631Q189 646 171 641T144 624Q133 611 133 594T156 561Q176 547 213
539T301 516L304 519ZM303 519Q244 504 205 496T137 474Q109 459 101 442T97 413Q102 400 117 395T164 404Q190 418 223 448T303 516V519ZM303 518Q274 462 255 426T230 361Q223 330 232 319T257 307Q272 307 288 319T312 361Q316 389 313 427T306 518H303ZM462
412Q473 425 473 442T450 475Q430 489 392 497T305 520L301 517Q334 476 353 448T395 405Q417 390 434 395T462 412ZM509 623Q505 636 489 641T442 632Q416 618 383 589T303 520L302 517Q362 533 401 540T469 562Q498 577 506 594T509 623Z" />
<glyph unicode="+" d="M61 370H294L361 606H397L330 370H562L553 340H321L254 105H218L285 340H52L61 370Z" />
<glyph unicode="," horiz-adv-x="264" d="M142 59Q142 4 103 -49T-6 -135L-11 -120Q35 -93 64 -59T96 12Q83 1 69 -6T40 -14Q18 -14 6 -3T-6 27Q-6 51 8 72T43 108T90 123Q116 123 129 105T142 59Z" />
<glyph unicode="-" horiz-adv-x="505" d="M70 291H431L414 224H53L70 291Z" />
<glyph unicode="." horiz-adv-x="256" d="M-1 40Q-1 73 24 98T81 123Q107 123 122 108T137 68Q137 46 126 28T96 -2T55 -14Q29 -14 14 1T-1 40Z" />
<glyph unicode="/" horiz-adv-x="466" d="M-41 -14L507 722H540L-8 -14H-41Z" />
<glyph unicode="0" horiz-adv-x="584" d="M364 530Q447 530 491 483T535 351Q535 284 509 219T437 101T332 18T204 -14Q123 -14 76 32T29 166Q29 234 55 298T129 415T236 499T364 530ZM346 512Q305 512 268 482T201 400T155 285T139 153Q139 70 163 37T222 4Q266
4 303 36T367 121T409 238T425 368Q425 448 403 480T346 512Z" />
<glyph unicode="1" horiz-adv-x="352" d="M326 527L171 0H66L193 429Q165 415 132 402T48 375L51 396Q118 415 164 437T244 482T306 527H326Z" />
<glyph unicode="2" horiz-adv-x="514" d="M309 529Q374 529 413 503T452 428Q452 388 426 350T360 275T273 208T185 149T118 101Q145 101 180 94T253 80T320 73Q356 73 375 85T395 121Q395 156 353 175L366 188Q393 175 407 156T421 107Q421 79 408 53T364 11T286
-6Q254 -6 225 1T165 15T98 24Q60 26 35 20T-22 0L-17 21Q6 40 42 65T118 120T199 185T272 258T325 336T345 419Q345 459 325 482T268 505Q240 505 210 492T154 455T113 404T97 346Q97 322 110 310T155 298Q183 298 203 308T247 339L259 325Q231 299 202 288T148
277Q132 277 115 282T85 302T73 345Q73 378 91 410T141 470T216 513T309 529Z" />
<glyph unicode="3" horiz-adv-x="496" d="M305 531Q371 531 410 505T450 432Q450 398 430 369T377 316T307 276T235 250Q283 249 321 236T382 198T405 133Q405 79 374 35T289 -44T172 -101T42 -137T-82 -151L-77 -133Q-18 -129 47 -110T168 -57T259 27T294 143Q294
183 274 207T217 234Q201 227 187 222T159 217Q151 217 145 220T142 232Q145 246 164 249T209 250Q246 265 277 289T328 346T348 415Q348 457 325 481T262 505Q236 505 209 495T158 466T120 425T105 378Q105 354 118 342T163 330Q197 330 225 345L236 330Q215 319
195 314T156 309Q140 309 123 314T93 334T81 377Q81 414 111 449T192 507T305 531Z" />
<glyph unicode="4" horiz-adv-x="522" d="M403 530L404 505L-30 49L-6 88H444L430 38H-53L-47 59L403 530ZM429 530L250 -141H145L290 402L403 530H429Z" />
<glyph unicode="5" horiz-adv-x="463" d="M429 538L441 531Q417 476 382 444T300 411Q280 411 259 421T218 440T181 446L76 227Q106 243 141 252T221 261Q304 261 342 229T380 145Q380 87 349 41T268 -40T156 -98T33 -134T-83 -148L-78 -130Q-23 -130 37 -112T150
-60T234 26T267 143Q267 183 244 207T165 231Q148 231 122 227T59 204L49 209L195 518Q222 520 242 514T286 500T343 493Q369 493 391 503T429 538Z" />
<glyph unicode="6" horiz-adv-x="540" d="M531 722L537 702Q481 688 425 653T319 566T228 446T165 299T142 132Q142 58 159 32T208 6Q247 6 278 36T332 113T366 211T378 306Q378 358 362 380T318 403Q291 403 262 378T209 287L193 293Q210 349 237 380T296 425T359
438Q417 438 453 400T490 288Q490 229 467 175T401 79T305 11T189 -14Q110 -14 72 31T33 167Q33 257 66 336T155 482T276 599T409 680T531 722Z" />
<glyph unicode="7" horiz-adv-x="492" d="M193 521Q236 521 271 510T342 487T419 472Q450 471 476 479T522 515H549Q512 468 472 423T393 330T318 230T253 118T206 -12Q201 -31 198 -45T194 -69T189 -91Q183 -114 165 -131T118 -148Q97 -148 88 -139T77 -114T80
-80Q91 -25 126 37T212 161T317 282T420 394T501 485Q501 485 509 488T517 491Q491 471 467 456T419 432T372 417T324 412Q287 412 260 419T210 434T156 442Q122 442 99 426T75 377Q75 337 108 310T208 267L202 252Q133 266 90 299T47 394Q47 424 62 453T109 501T193
521Z" />
<glyph unicode="8" horiz-adv-x="554" d="M403 722Q446 722 479 711T533 676T553 616Q553 577 532 544T478 483T408 432T335 392L331 404Q363 426 391 460T436 535T454 620Q454 704 383 704Q349 704 320 685T272 634T254 561Q254 517 276 483T330 418T395 357T449
287T471 198Q471 150 449 111T388 44T298 1T189 -14Q137 -14 96 -1T30 41T6 116Q6 161 29 200T90 271T173 329T263 372L267 360Q222 334 187 295T132 207T112 105Q112 60 131 32T202 4Q245 4 282 24T343 83T367 172Q367 221 346 257T293 325T230 386T178 451T156
535Q156 577 177 611T233 670T313 708T403 722Z" />
<glyph unicode="9" horiz-adv-x="527" d="M327 529Q406 529 444 484T483 348Q483 261 450 184T363 43T245 -69T115 -148T-5 -188L-11 -168Q42 -155 97 -121T201 -36T290 80T351 222T374 383Q374 457 357 483T308 509Q269 509 238 479T184 402T150 304T138 209Q138
157 154 135T197 112Q224 112 254 137T306 228L323 222Q305 167 278 135T220 90T157 77Q99 77 63 115T26 227Q26 286 49 340T115 436T211 504T327 529Z" />
<glyph unicode=":" horiz-adv-x="289" d="M115 446Q115 479 140 504T197 529Q223 529 238 514T253 474Q253 452 242 434T212 404T171 392Q145 392 130 407T115 446ZM15 40Q15 73 40 98T97 123Q123 123 138 108T153 68Q153 46 142 28T112 -2T71 -14Q45 -14 30 1T15 40Z" />
<glyph unicode=";" horiz-adv-x="297" d="M118 446Q118 479 143 504T200 529Q226 529 241 514T256 474Q256 452 245 434T215 404T174 392Q148 392 133 407T118 446ZM159 59Q159 4 120 -49T11 -135L6 -120Q52 -93 81 -59T113 12Q100 1 86 -6T57 -14Q35 -14 23 -3T11
27Q11 51 25 72T60 108T107 123Q133 123 146 105T159 59Z" />
<glyph unicode="&lt;" horiz-adv-x="599" d="M602 582L612 553L125 351L456 177L440 145L50 355L602 582Z" />
<glyph unicode="=" horiz-adv-x="659" d="M68 270L77 300H578L569 270H68ZM108 410L117 440H618L609 410H108Z" />
<glyph unicode="&gt;" horiz-adv-x="600" d="M61 155L51 184L511 376L141 574L157 603L586 372L61 155Z" />
<glyph unicode="?" horiz-adv-x="454" d="M307 763Q291 763 271 759T234 746T209 721Q219 720 228 713T244 695T249 670Q248 647 231 632T188 616Q165 616 152 629T138 667Q138 694 155 716T201 752T264 774T332 782Q379 782 415 769T473 729T495 662Q495 631
479 600T426 532T325 447Q270 405 235 378T182 328T164 273Q164 246 180 226T234 206Q260 206 286 216T324 244Q312 246 301 258T291 288Q291 307 305 322T344 337Q361 337 373 327T386 295Q386 268 370 249T327 216T270 195T211 188Q174 188 146 199T101 233T84
290Q84 332 108 366T173 431T262 500Q308 536 337 562T381 615T396 672Q396 712 375 737T307 763ZM108 40Q108 73 133 98T190 123Q216 123 231 108T246 68Q246 46 235 28T205 -2T164 -14Q139 -14 124 1T108 40Z" />
<glyph unicode="@" horiz-adv-x="853" d="M574 53Q593 53 622 67T683 108T743 175T789 268T807 386Q807 478 768 534T662 616T514 642Q437 642 367 616T239 543T139 434T73 300T49 149Q49 72 72 17T138 -72T237 -123T358 -139Q415 -139 470 -126T575 -83L582 -96Q543
-123 485 -140T357 -157Q288 -157 229 -140T124 -86T54 9T29 147Q29 225 52 299T118 439T222 554T355 632T513 660Q602 660 673 632T785 543T827 386Q827 302 798 235T724 122T628 51T533 26Q493 26 477 42T459 82T463 129T473 166L557 464Q583 464 610 467T659
478L553 113Q544 80 549 67T574 53ZM508 247Q483 170 456 122T396 50T320 26Q283 26 260 41T225 83T213 147Q213 192 227 238T268 327T327 404T398 458T475 478Q513 478 529 456T542 383L533 378Q534 401 529 417T513 442T485 451Q452 451 421 425T366 354T327
258T312 152Q312 106 324 84T361 62Q398 62 431 113T501 263L508 247Z" />
<glyph unicode="A" horiz-adv-x="637" d="M73 156Q38 107 33 78T48 35T109 20L104 0Q71 2 41 2T-16 3Q-40 3 -56 3T-89 0L-84 20Q-69 24 -54 34T-20 63T20 113L447 713Q454 713 460 713T474 713L514 84Q517 48 532 35T563 20L559 0Q537 2 503 2T438 3Q399 3 364
3T308 0L312 20Q360 22 380 37T398 104L372 587L388 600L73 156ZM158 288H450L442 268H140L158 288Z" />
<glyph unicode="B" horiz-adv-x="648" d="M422 707Q524 707 572 672T620 578Q620 526 589 485T507 415T394 373Q493 362 535 318T578 213Q578 159 553 120T484 54T385 14T270 0Q234 0 194 1T97 3Q73 3 48 3T1 2T-36 0L-32 20Q2 22 21 28T51 52T71 106L203 602Q210
632 211 650T198 678T144 688L149 708Q164 707 185 707T231 706T279 705Q318 705 352 706T422 707ZM233 359L237 376H313Q372 376 414 404T479 479T502 578Q502 632 480 660T404 688Q365 688 349 675T321 617L186 106Q179 79 178 60T189 32T233 23Q312 23 361 48T433
120T456 229Q456 269 443 298T400 343T322 359H233Z" />
<glyph unicode="C" horiz-adv-x="678" d="M723 708Q708 669 692 614T659 478H637Q645 530 644 566T628 628Q609 665 575 683T501 702Q450 702 402 673T313 593T241 478T192 344T174 205Q174 105 212 57T315 8Q355 8 401 27T483 82Q510 109 529 145T573 240H595Q570
149 557 94T536 0H514Q517 21 517 34Q517 56 509 59T484 51Q457 33 430 19T369 -5T293 -14Q174 -14 111 47T48 225Q48 294 69 364T131 499T227 613T351 692T498 722Q541 722 568 713T613 689T647 657Q661 643 673 654T702 708H723Z" />
<glyph unicode="D" horiz-adv-x="740" d="M721 481Q721 409 700 339T638 208T538 101T405 27T241 0Q226 0 202 1T150 2T97 3Q74 3 50 3T4 2T-33 0L-30 20Q2 22 20 28T50 52T70 106L201 602Q210 634 210 652T195 679T143 688L146 708Q162 707 184 706T233 705T282
705Q304 706 332 706T387 707T433 708Q576 708 648 651T721 481ZM233 18Q306 18 364 44T468 118T543 228T588 361T603 508Q603 598 557 644T407 690Q378 690 362 683T336 658T316 604L185 104Q177 74 176 55T187 27T233 18Z" />
<glyph unicode="E" horiz-adv-x="615" d="M208 346L214 366H395L390 346H208ZM311 366Q343 366 364 378T399 411T424 453T442 494H465Q447 441 440 412T426 356Q421 339 417 321T408 279T395 218H372Q374 241 375 263T372 304T352 334T304 346L311 366ZM577 528Q585
587 581 621T554 670T479 685H420Q387 685 369 680T339 657T318 602L185 106Q175 70 176 52T194 29T244 23H305Q365 23 402 40T465 95T517 200H540Q535 187 529 168T518 128Q513 109 505 74T492 0Q441 2 377 2T263 3Q240 3 205 3T127 3T43 2T-38 0L-33 20Q1 22
20 28T49 52T70 106L203 602Q213 639 212 656T195 680T145 688L150 708Q188 707 230 707T315 706T392 705T451 705Q496 705 551 705T652 708Q639 673 629 642T614 590Q609 572 606 556T600 528H577Z" />
<glyph unicode="F" horiz-adv-x="573" d="M209 338L214 358H416L412 338H209ZM569 498Q580 568 576 608T546 667T461 685H418Q385 685 367 680T339 657T318 602L185 106Q175 70 178 52T201 28T263 20L259 0Q231 2 188 2T101 3Q59 3 22 3T-38 0L-33 20Q1 22 20
28T49 52T70 106L203 602Q213 639 212 656T195 680T145 688L150 708Q188 707 230 707T315 706T392 705T451 705Q496 705 551 705T652 708Q639 671 628 638T611 582Q604 557 600 536T592 498H569ZM317 358Q348 358 369 370T404 402T429 444T448 486H470Q453 433
446 404T431 348Q425 322 418 291T399 204H376Q379 230 380 254T376 297T356 327T310 338L317 358Z" />
<glyph unicode="G" horiz-adv-x="716" d="M324 6Q355 6 382 15T426 34Q446 46 455 62T470 100L493 188Q504 229 502 249T480 276T418 284L423 304Q442 303 468 303T521 302T573 301Q610 301 640 302T690 304L685 284Q663 283 651 277T630 253T611 198L558 0H538Q541
20 538 38T521 57Q510 57 499 52T467 35Q429 12 390 -1T306 -14Q180 -14 113 46T46 215Q46 283 67 354T127 491T222 609T347 691T498 722Q563 722 598 703T662 657Q677 642 690 652T719 708H741Q726 669 710 614T677 478H655Q657 498 658 516T660 553Q660 574 657
592T646 626Q625 663 585 683T492 704Q427 704 375 669T282 575T215 447T175 308T161 182Q161 92 201 49T324 6Z" />
<glyph unicode="H" horiz-adv-x="773" d="M220 346L227 366H580L572 346H220ZM618 602Q628 639 627 656T609 680T559 688L564 708Q589 707 626 706T700 705Q743 705 780 706T841 708L836 688Q802 687 783 681T754 657T733 602L601 106Q592 70 593 52T610 28T660
20L656 0Q633 2 596 2T516 3Q479 3 442 3T379 0L383 20Q417 22 436 28T466 52T486 106L618 602ZM185 106Q176 70 177 52T194 28T244 20L240 0Q216 2 179 2T103 3Q61 3 25 3T-36 0L-31 20Q2 22 20 28T50 52T70 106L202 602Q212 639 210 656T193 680T143 688L148
708Q170 707 207 706T287 705Q325 705 362 706T425 708L420 688Q386 687 367 681T338 657T317 602L185 106Z" />
<glyph unicode="I" horiz-adv-x="357" d="M185 106Q176 70 177 52T194 28T244 20L240 0Q215 2 178 2T101 3Q59 3 24 3T-36 0L-31 20Q2 22 20 28T50 52T70 106L202 602Q212 639 210 656T193 680T143 688L148 708Q170 707 206 706T285 705Q324 705 361 706T425 708L420
688Q386 687 367 681T338 657T317 602L185 106Z" />
<glyph unicode="J" horiz-adv-x="652" d="M588 366L585 346H242L245 366H588ZM447 591Q412 591 383 599T328 618T273 637T211 645Q179 645 163 629T148 582Q149 551 170 533T235 508Q235 508 234 498T232 488Q198 493 168 506T120 546T100 613Q99 667 131 703T225
739Q260 739 287 728T339 702T388 672T439 645T501 634Q549 634 589 645T676 677Q697 709 717 726T752 730Q764 720 751 703T685 666Q604 609 553 516T472 307L410 65Q393 -3 360 -60T276 -153T154 -188Q121 -188 96 -182T55 -161T39 -126Q38 -101 56 -82T104 -62Q127
-62 142 -74T158 -108Q158 -128 146 -143T113 -167Q120 -169 128 -170T145 -172Q183 -172 207 -148T249 -83T280 10T309 120L347 262Q367 337 398 395T470 498T560 583T663 660Q635 648 608 636T555 613T502 597T447 591Z" />
<glyph unicode="K" horiz-adv-x="697" d="M185 106Q176 70 177 52T194 28T244 20L240 0Q216 2 179 2T103 3Q61 3 25 3T-36 0L-31 20Q2 22 20 28T50 52T70 106L202 602Q212 639 210 656T193 680T143 688L148 708Q170 707 207 706T287 705Q325 705 362 706T425 708L420
688Q386 687 367 681T338 657T317 602L185 106ZM528 47Q552 47 568 65T596 119L613 170H633L607 93Q588 38 557 12T481 -14Q429 -14 406 17T387 105L398 227Q402 274 398 300T385 340T358 365L360 375Q398 370 426 362T474 337T501 289T506 204L500 93Q499 73 504
60T528 47ZM372 360Q318 345 299 349T279 369Q280 384 299 388T372 378V360ZM610 685Q592 667 579 637T554 570T528 498T493 433T439 385T359 368L361 378Q414 383 445 409T496 475T528 558T556 638T595 697Q612 712 628 717T659 722Q697 722 714 702T730 652Q729
637 722 620T699 590T661 577Q637 577 625 592T613 628Q613 647 626 667T659 701Q657 701 656 701T651 702Q636 701 628 697T610 685Z" />
<glyph unicode="L" horiz-adv-x="592" d="M544 210Q538 194 532 173T519 128Q514 109 506 74T492 0Q441 2 378 2T264 3Q241 3 205 3T127 3T43 2T-38 0L-33 20Q1 22 20 28T49 52T70 106L203 602Q213 639 212 656T195 680T145 688L150 708Q172 707 209 706T290 705Q328
705 364 706T427 708L422 688Q388 687 369 681T339 657T318 602L185 106Q175 70 176 52T194 29T244 23H306Q363 23 401 41T467 100T521 210H544Z" />
<glyph unicode="M" horiz-adv-x="884" d="M757 705H815Q854 705 890 706T952 708L947 688Q913 687 894 681T865 657T844 602L712 106Q703 70 704 52T722 28T771 20L767 0Q741 2 706 2T631 3Q589 3 552 3T491 0L495 20Q530 22 548 28T578 52T598 106L743 645L328
-5H306L234 638L97 120Q89 86 89 64T108 32T167 20L162 0Q151 1 133 1T95 2T58 3Q32 3 6 3T-37 0L-32 20Q3 22 22 32T54 64T74 120L203 602Q213 639 211 656T194 680T144 688L149 708Q168 707 195 706T254 705Q278 705 302 706T343 708L399 142L757 705Z" />
<glyph unicode="N" horiz-adv-x="788" d="M508 -5L268 619Q268 619 266 617T260 611T255 605T252 602Q260 639 258 656T238 680T181 688L186 708Q202 707 225 706T275 705Q322 705 356 708L554 171Q554 171 552 159T548 126T542 83T537 41T532 8T530 -5H508ZM813
734Q786 733 766 719T731 682Q685 614 637 443T530 -5L516 23Q531 90 548 167T584 323T624 472T667 599T713 690Q732 717 758 735T821 754Q859 754 875 736T892 692Q892 662 874 638T823 613Q797 613 786 627T774 659Q774 682 788 701T821 732Q819 733 818 733T813
734ZM4 -54Q31 -53 52 -39T88 -1Q117 45 146 143T206 380T268 685L285 664Q269 582 252 498T216 333T179 183T141 64T104 -11Q86 -35 62 -54T-3 -74Q-42 -74 -58 -56T-75 -11Q-75 19 -56 43T-5 67Q22 67 32 53T43 21Q43 -2 30 -21T-3 -52Q-2 -53 0 -53T4 -54Z"
/>
<glyph unicode="O" horiz-adv-x="745" d="M470 704Q425 704 382 677T303 601T238 490T194 356T178 213Q178 115 214 60T306 4Q351 4 394 31T473 107T538 218T582 352T598 495Q598 593 562 648T470 704ZM50 226Q50 292 69 362T126 496T216 611T335 692T479 722Q595
722 661 660T727 481Q727 415 707 346T650 212T560 97T441 16T297 -14Q181 -14 116 48T50 226Z" />
<glyph unicode="P" horiz-adv-x="607" d="M212 284L217 304H262Q333 304 382 326T461 386T504 472T518 574Q518 631 491 659T401 688Q375 688 360 681T335 655T317 602L185 106Q177 76 177 58T190 30T244 20L240 0Q215 2 180 2T106 3Q63 3 25 3T-36 0L-32 20Q2
22 21 28T51 52T71 106L203 602Q211 634 211 652T196 679T144 688L149 708Q171 707 209 706T284 705Q320 705 356 706T430 707Q537 707 589 667T641 556Q641 478 592 417T456 320T252 284H212Z" />
<glyph unicode="Q" horiz-adv-x="798" d="M303 243Q244 243 201 265T135 326T112 419Q112 485 144 540T233 636T358 699T501 722Q584 722 645 697T740 626T773 516Q773 456 746 395T670 274T561 162T432 64T297 -13T168 -64T61 -82Q13 -82 -15 -62T-43 -6Q-43
22 -26 44T20 79T85 91Q135 91 177 70T258 19T340 -41T432 -93T546 -114Q579 -114 605 -107T651 -85T685 -45Q676 -51 665 -54T643 -57Q617 -57 601 -41T585 0Q585 27 604 47T654 68Q681 68 698 51T715 2Q715 -33 693 -67T633 -128T548 -171T451 -188Q400 -188
358 -171T280 -126T215 -68T157 -10T102 35T45 53Q19 53 -2 38T-23 -7Q-23 -36 2 -50T71 -65Q97 -65 127 -58T190 -40T253 -14Q313 13 370 53T477 145T565 256T625 378T647 506Q647 596 605 650T483 704Q427 704 382 678T304 609T254 512T236 405Q236 358 249 328T288
283T346 268Q391 268 426 290T482 347T505 416Q506 426 506 438T502 458Q492 433 469 421T423 408Q398 408 383 424T368 464Q368 495 390 515T446 536Q484 536 506 508T528 434Q528 382 500 339T421 269T303 243Z" />
<glyph unicode="R" horiz-adv-x="680" d="M241 354Q287 352 314 350T358 346T392 341Q426 336 452 328T496 305T522 267T527 207L517 105Q514 74 520 50T548 27Q567 28 581 48T608 107L613 121H636L632 108Q615 47 585 17T502 -14Q446 -14 422 16T401 89L412 201Q416
250 406 280T357 323T239 337L241 354ZM229 337L234 357H275Q339 357 385 372T461 418T505 488T520 576Q520 633 493 660T404 688Q365 688 349 672T319 609L185 106Q177 75 176 57T190 30T244 20L240 0Q215 2 180 2T105 3Q63 3 25 3T-36 0L-32 20Q2 22 21 28T51
52T71 106L203 602Q212 634 212 652T196 679T144 688L149 708Q164 707 186 707T233 706T281 705Q321 705 357 706T429 707Q537 707 589 670T641 567Q641 499 594 448T463 368T269 338L229 337Z" />
<glyph unicode="S" horiz-adv-x="565" d="M591 715Q581 689 564 640T532 511H512Q515 525 516 540T518 568Q518 605 503 635T456 683T375 701Q319 701 281 672T242 580Q242 543 260 511T305 448T365 388T425 327T471 260T489 183Q489 131 465 94T402 33T318 -2T228
-14Q186 -14 158 -7T110 11T76 32Q65 40 56 43T40 47Q27 47 19 34T-1 -7H-21Q-12 15 -2 44T20 118T47 233H67Q62 213 60 193T58 153Q61 84 100 46T221 7Q287 7 324 36T362 125Q362 167 346 200T304 263T249 321T195 379T153 445T137 525Q137 574 157 611T210 672T283
709T365 722Q413 722 445 711T505 679Q516 671 524 667T538 662Q552 662 571 715H591Z" />
<glyph unicode="T" horiz-adv-x="666" d="M772 831Q800 831 814 815T828 775Q828 749 813 729T774 696Q747 680 707 672T613 664Q572 664 531 668T448 678T366 688T288 692Q256 692 224 689T175 675Q189 666 198 648T207 609Q207 585 192 564T148 543Q122 543
109 560T95 602Q95 624 106 647T152 687Q175 698 201 703T251 709T286 710Q346 710 401 704T510 691T620 684Q664 684 694 689T748 706L746 699Q735 709 724 727T713 767Q713 792 728 811T772 831ZM416 690Q416 690 427 689T454 686T488 682T516 679T527 678L378
116Q368 79 370 59T391 30T453 20L449 0Q421 2 378 2T288 3Q242 3 200 3T132 0L136 20Q178 22 201 30T238 59T263 116L416 690Z" />
<glyph unicode="U" horiz-adv-x="686" d="M635 576Q647 619 645 642T625 675T570 688L575 708Q593 707 623 706T678 705Q704 705 729 706T770 708L765 688Q732 686 712 676T680 644T658 580L583 291Q547 153 485 79Q449 37 396 12T280 -14Q223 -14 181 1T113 48Q80
89 80 145T104 288L187 602Q197 639 195 656T178 680T128 688L134 708Q156 707 194 706T275 705Q313 705 348 706T410 708L404 688Q370 687 351 681T322 657T301 602L213 271Q199 216 193 171T195 92T228 40T299 21Q374 21 424 54T506 147T557 280L635 576Z" />
<glyph unicode="V" horiz-adv-x="642" d="M593 552Q626 603 630 632T616 674T554 688L559 708Q577 707 597 707T640 706T679 705Q704 705 721 706T755 708L750 688Q734 684 717 675T682 646T643 595L253 -5Q246 -5 240 -5T226 -5L147 624Q143 660 126 673T95 688L100
708Q122 707 155 706T220 705Q262 705 294 706T351 708L346 688Q314 687 295 681T269 658T266 604L322 123L309 116L593 552Z" />
<glyph unicode="W" horiz-adv-x="929" d="M538 480L247 -5H219L140 624Q136 662 119 674T86 688L90 708Q112 707 141 706T203 705Q238 705 268 706T318 708L314 688Q281 686 268 670T259 604L314 130L298 117L530 505L538 480ZM875 552Q903 607 905 635T887 675T826
688L831 708Q848 707 869 707T911 706T950 705Q975 705 992 706T1026 708L1021 688Q1005 684 988 676T954 648T919 595L614 -5H586L491 624Q486 662 473 674T447 688L451 708Q471 707 498 706T554 705Q596 705 632 706T691 708L687 688Q636 686 620 671T610 604L678
148L663 137L875 552Z" />
<glyph unicode="X" horiz-adv-x="713" d="M457 145Q461 104 477 75T528 46Q556 46 573 63T604 119L621 170H641L615 93Q596 37 565 12T488 -14Q437 -14 409 9T367 67T349 142L299 564Q294 606 279 634T227 663Q200 663 183 646T151 589L134 538H114L140 615Q160
672 192 697T270 722Q320 722 348 700T389 642T407 566L457 145ZM691 702Q672 702 657 697T626 680Q594 656 552 603T466 468T381 278L396 354Q421 419 456 484T532 603T607 687Q653 722 699 722Q738 722 753 701T768 652Q766 625 749 601T699 577Q674 577 663
592T652 628Q653 649 666 669T698 700Q697 701 695 701T691 702ZM42 6Q61 7 76 12T106 28Q140 51 184 99T275 221T363 396L348 320Q323 261 285 203T206 96T126 21Q80 -14 33 -14Q-5 -14 -21 7T-35 56Q-34 83 -17 107T34 131Q60 131 71 116T80 80Q80 59 67 40T34
8Q36 7 38 7T42 6Z" />
<glyph unicode="Y" horiz-adv-x="691" d="M361 106Q352 70 354 52T373 28T424 20L419 0Q403 1 380 1T331 2T279 3Q237 3 200 3T138 0L143 20Q177 22 196 28T226 52T246 106L315 380L360 317L405 336L439 416L361 106ZM697 702Q681 701 667 695T640 679Q609 657
567 606T481 472T395 270L310 265Q306 311 300 364T284 470T261 565T229 635T187 661Q170 661 159 650T140 614L114 538Q114 538 103 538T92 538L123 628Q139 677 164 699T235 722Q294 722 328 679T380 554T410 362Q447 458 493 532T589 658Q612 682 643 702T707
722Q745 722 761 701T776 653Q775 628 757 605T706 581Q680 581 669 596T658 630Q659 652 672 670T704 700Q703 701 701 701T697 702Z" />
<glyph unicode="Z" horiz-adv-x="654" d="M160 346L167 366H520L512 346H160ZM448 207Q448 207 450 217T452 227Q480 223 506 210T549 174T566 111Q566 57 532 22T437 -14Q398 -14 369 1T314 36T260 72T194 87Q156 87 127 76T60 48Q38 16 12 -1T-28 -5Q-40 6 -26
28T41 70L621 640Q577 610 530 592T438 574Q405 574 379 582T329 600T281 618T226 626Q196 626 181 611T166 569Q166 542 184 525T238 501Q238 501 236 491T234 481Q207 486 181 498T137 535T120 597Q120 651 154 686T249 722Q288 722 317 707T372 672T426 636T492
621Q530 621 560 632T626 660Q649 692 674 709T714 713Q726 703 712 681T645 638L65 68Q109 98 156 116T248 134Q282 134 308 126T357 108T406 90T460 82Q490 82 505 97T520 139Q520 166 502 183T448 207Z" />
<glyph unicode="[" horiz-adv-x="321" d="M-23 -181L214 772H404L400 753H319L90 -162H171L167 -181H-23Z" />
<glyph unicode="\" horiz-adv-x="492" d="M163 722L391 -14H358L132 722H163Z" />
<glyph unicode="]" horiz-adv-x="321" d="M344 772L107 -181H-83L-79 -162H2L231 753H150L154 772H344Z" />
<glyph unicode="^" horiz-adv-x="533" d="M281 426Q244 396 191 367T83 318L79 332Q154 365 218 418T321 528H339Q348 471 383 418T478 332L467 318Q412 337 362 366T281 426Z" />
<glyph unicode="_" horiz-adv-x="744" d="M-34 -109H550L532 -168H-51L-34 -109Z" />
<glyph unicode="`" horiz-adv-x="321" d="M345 599Q309 648 282 679T234 733T200 778Q187 801 190 818T208 844Q225 852 243 846T275 817Q288 795 297 767T319 700T358 605L345 599Z" />
<glyph unicode="a" horiz-adv-x="535" d="M146 25Q168 25 195 51T250 122T302 228T342 356L324 247Q290 152 255 95T182 12T106 -14Q56 -14 31 19T6 108Q6 158 22 215T68 328T136 429T218 501T306 529Q340 529 358 498T367 406L356 400Q363 447 351 475T310 504Q286
504 259 480T207 413T160 317T126 208T114 97Q114 57 122 41T146 25ZM385 515Q415 516 443 519T495 529L368 86Q365 75 363 62T363 38T382 28Q400 28 418 47T454 122L468 163H487L462 90Q448 49 428 27T386 -4T342 -14Q298 -14 280 14Q267 36 271 67T285 133L385
515Z" />
<glyph unicode="b" horiz-adv-x="518" d="M335 490Q311 490 282 457T222 368T165 241T120 94L137 200Q177 319 215 391T291 496T373 529Q424 529 453 493T483 384Q483 338 471 285T433 179T372 82T288 12T184 -14Q155 -14 132 2T99 47L107 66Q120 36 136 24T174
11Q207 11 237 37T292 106T337 203T366 309T377 409Q377 451 366 470T335 490ZM111 51Q84 38 56 21T0 -16L-15 -9Q-8 5 -4 19T4 49L181 667Q190 701 179 717T118 733L124 754Q184 755 230 765T318 795L111 51Z" />
<glyph unicode="c" horiz-adv-x="442" d="M335 509Q297 509 260 478T193 393T145 271T127 129Q127 78 147 55T199 32Q233 32 269 53T343 128L363 120Q343 87 312 56T242 6T156 -14Q93 -14 54 23T15 135Q15 182 29 236T69 342T135 436T223 503T330 529Q377 529
409 505T442 440Q442 419 432 398T404 364T362 350Q340 350 328 363T316 395Q316 428 340 451T396 482Q387 494 373 501T335 509Z" />
<glyph unicode="d" horiz-adv-x="554" d="M387 85Q380 62 382 45T404 27Q422 27 438 47T473 121L487 162H506L482 89Q470 49 450 27T406 -5T361 -14Q300 -14 293 39Q289 56 291 79T303 132L445 667Q454 701 442 717T381 733L387 754Q448 755 494 765T583 795L387
85ZM158 24Q180 24 209 51T268 126T324 238T368 376L353 268Q316 167 280 105T204 15T118 -14Q87 -14 62 0T23 44T9 121Q9 168 24 223T68 332T137 430T228 502T336 529Q362 529 380 513T401 464L393 444Q389 477 375 491T341 506Q307 506 274 481T213 414T164 319T130
212T118 105Q118 64 128 44T158 24Z" />
<glyph unicode="e" horiz-adv-x="442" d="M100 224Q151 242 193 261T263 302Q300 333 321 375T343 469Q343 495 339 502T327 510Q303 510 276 488T221 428T172 341T136 238T122 130Q122 78 141 56T193 34Q226 34 266 54T345 128L361 120Q341 87 309 56T237 6T149
-14Q108 -14 76 2T27 49T9 127Q9 173 25 227T72 335T145 432T239 503T349 529Q385 529 409 512T433 459Q433 419 411 385T350 322T268 272T179 234T99 208L100 224Z" />
<glyph unicode="f" horiz-adv-x="328" d="M63 495L69 515H376L370 495H63ZM399 766Q381 766 368 759T343 742Q327 727 315 697T291 627T269 541L77 -174Q47 -175 20 -178T-32 -188L156 513Q177 594 202 647T263 733Q288 756 322 769T394 782Q445 782 473 760T501
703Q501 685 491 668T465 639T426 628Q403 628 390 638T378 668Q378 696 395 716T441 746Q440 753 429 759T399 766Z" />
<glyph unicode="g" horiz-adv-x="457" d="M218 225L250 226Q213 207 183 192T135 163T117 137Q117 127 130 120T172 104L249 82Q280 74 305 63T346 34T362 -12Q362 -41 343 -72T287 -131T195 -176T68 -194Q16 -194 -21 -185T-78 -158T-98 -118Q-98 -101 -87 -84T-55
-53T-6 -26T57 -6L63 -21Q27 -40 13 -62T-1 -108Q-1 -144 25 -160T90 -177Q121 -177 154 -167T217 -141T263 -103T280 -57Q280 -41 269 -35T236 -24L86 16Q62 22 46 37T30 78Q30 100 47 122T106 168T218 225ZM267 511Q239 511 220 494T187 450T166 393T155 335T152
291Q152 259 164 246T198 232Q231 232 252 254T286 309T304 378T309 440Q309 472 301 491T267 511ZM275 529Q336 529 375 503T414 416Q414 368 386 322T306 245T185 214Q127 214 88 240T49 324Q49 353 61 388T101 455T171 508T275 529ZM349 477L330 484Q345 519
378 545T450 571Q478 571 494 556T510 510Q510 482 496 468T465 454Q449 454 435 465T417 500T430 560L441 557Q400 541 382 524T349 477Z" />
<glyph unicode="h" horiz-adv-x="547" d="M93 0H-12L186 667Q196 701 184 717T122 733L128 754Q189 755 237 765T326 795L93 0ZM120 147Q159 255 193 329T261 447T330 510T406 529Q453 529 471 507T489 450T475 378L378 85Q370 59 372 43T393 27Q410 27 427 46T465
121L480 162H499L474 89Q460 47 439 25T395 -5T349 -14Q306 -14 288 5T272 57T287 132L380 413Q386 429 389 447T388 478T362 491Q339 491 312 468T256 401T199 299T145 169T97 17L120 147Z" />
<glyph unicode="i" horiz-adv-x="309" d="M185 692Q189 724 213 744T268 764Q297 764 313 746T326 700Q322 669 298 649T242 628Q213 628 197 646T185 692ZM152 430Q171 488 139 488Q117 488 100 466T65 394L49 352H30L56 426Q71 467 92 489T137 520T185 529Q218
529 235 516T256 482T256 437T244 389L138 85Q128 57 132 42T153 27Q171 27 188 46T226 121L242 162H261L235 89Q221 49 200 27T156 -4T108 -14Q65 -14 48 5T32 58T48 132L152 430Z" />
<glyph unicode="j" horiz-adv-x="284" d="M-137 -188L-133 -172Q-75 -170 -34 -124T29 7L148 430Q157 462 154 475T134 488Q116 488 99 467T62 394L47 352H28L53 426Q73 486 108 507T182 529Q226 529 241 509T254 456T242 389L163 108Q150 56 132 12T89 -67T31
-129Q0 -155 -43 -171T-137 -188ZM182 686Q182 717 205 742T265 768Q293 768 308 753T324 714Q324 683 300 658T239 632Q213 632 198 647T182 686Z" />
<glyph unicode="k" horiz-adv-x="527" d="M93 0H-12L186 667Q196 701 184 717T122 733L128 754Q189 755 237 765T326 795L93 0ZM355 68Q351 46 355 37T374 27Q391 27 408 47T443 121L457 162H476L452 89Q439 49 419 27T374 -5T325 -14Q287 -14 267 11T258 88L275
171Q288 227 266 253T165 286V290Q205 293 246 290T319 273T367 232T374 160L355 68ZM429 508Q417 508 408 504T391 494Q372 479 360 454T335 399T304 344T256 302T177 287L167 286L169 297Q217 300 245 317T290 359T318 412T342 465T376 506Q393 520 408 524T436
529Q476 529 492 508T507 459Q506 443 499 427T477 399T440 388Q415 388 404 402T393 436Q393 455 406 474T436 506Q434 507 433 507T429 508Z" />
<glyph unicode="l" horiz-adv-x="285" d="M115 85Q108 57 111 42T132 27Q149 27 166 47T202 121L217 162H236L211 89Q198 50 178 28T135 -4T87 -14Q54 -14 37 -2T15 31T12 79T24 132L185 667Q195 701 183 717T122 733L129 754Q189 755 235 765T325 795L115 85Z" />
<glyph unicode="m" horiz-adv-x="825" d="M133 0H28L148 430Q152 440 153 453T152 477T135 488Q114 488 97 467T62 394L47 352H28L53 426Q68 467 89 489T133 520T179 529Q210 529 225 516T243 482T242 436T232 389L133 0ZM402 413Q408 433 410 450T409 478T387
489Q361 489 330 457T267 367T205 232T149 65L173 195Q218 319 258 392T340 497T432 529Q465 529 480 516T500 480T500 431T489 378L386 0H278L402 413ZM658 413Q667 442 667 465T648 489Q621 489 591 458T529 368T463 227T398 43L414 147Q452 254 485 327T550
445T617 509T693 529Q735 529 751 506T767 449T753 378L655 85Q645 55 649 41T670 27Q687 27 705 46T743 121L757 162H776L751 89Q737 47 716 25T672 -5T626 -14Q599 -14 583 -6T558 16Q545 35 548 64T564 132L658 413Z" />
<glyph unicode="n" horiz-adv-x="588" d="M134 0H29L149 430Q153 443 155 456T154 479T135 488Q115 488 99 468T63 394L48 352H29L54 426Q76 487 108 508T177 529Q209 529 224 516T242 483T243 438T233 389L134 0ZM175 195Q211 291 244 355T310 458T375 512T446
529Q494 529 512 507T530 451T516 378L419 85Q409 58 412 43T434 27Q451 27 468 46T506 121L521 162H540L515 89Q501 47 480 25T435 -5T389 -14Q364 -14 347 -6T321 16Q309 35 312 64T328 132L421 413Q426 428 429 446T428 477T403 491Q381 491 355 469T301 407T245
311T193 192T147 55L175 195Z" />
<glyph unicode="o" horiz-adv-x="502" d="M313 509Q284 509 256 483T204 413T160 313T131 199T120 87Q120 45 132 26T169 6Q198 6 226 32T279 102T322 200T351 314T362 428Q362 472 350 490T313 509ZM18 146Q18 190 30 242T67 345T127 437T211 504T319 529Q386
529 425 490T464 369Q464 325 452 273T415 170T355 78T271 11T163 -14Q96 -14 57 26T18 146Z" />
<glyph unicode="p" horiz-adv-x="562" d="M378 490Q354 490 325 457T265 368T208 241T163 94L181 200Q221 319 258 391T334 496T416 529Q467 529 496 493T526 384Q526 338 514 285T477 179T416 82T334 12T231 -14Q201 -14 177 2T142 47L150 66Q163 36 179 24T218
11Q250 11 280 36T335 105T380 200T410 305T420 404Q420 450 409 470T378 490ZM221 664Q251 666 279 670T332 683L113 -84Q100 -129 123 -144T193 -160L187 -181Q166 -180 127 -179T45 -177Q11 -177 -24 -178T-76 -181L-70 -160Q-34 -160 -18 -147T8 -98L221 664ZM18
355Q56 393 89 431T154 521T218 653L221 637Q200 568 170 517T105 423T29 342L18 355Z" />
<glyph unicode="q" horiz-adv-x="522" d="M344 -88Q333 -128 351 -143T405 -160L399 -181Q378 -180 340 -179T258 -177Q224 -177 189 -178T135 -181L141 -160Q187 -160 208 -146T240 -95L388 464Q415 477 443 494T498 531L514 524Q507 511 502 496T493 465L344
-88ZM163 27Q185 27 211 50T263 114T311 207T348 315L329 209Q295 128 263 79T197 8T125 -14Q74 -14 45 22T15 131Q15 177 28 230T66 336T128 433T211 503T314 529Q343 529 366 513T399 468L391 449Q379 480 363 492T324 504Q291 504 261 478T206 407T161 310T132
204T121 106Q121 65 132 46T163 27Z" />
<glyph unicode="r" horiz-adv-x="441" d="M133 0H28L148 430Q157 462 154 475T135 488Q115 488 98 467T62 394L47 352H28L53 426Q68 467 89 489T133 520T180 529Q211 529 225 516T242 482T242 437T232 389L133 0ZM389 505Q367 505 343 487T294 431T244 338T193
208T142 39L166 169Q198 271 226 340T281 450T338 510T402 529Q434 529 451 511T469 464Q469 441 458 423T430 393T390 381Q369 381 356 392T343 425Q343 444 351 459T372 485T401 501Q399 503 396 504T389 505Z" />
<glyph unicode="s" horiz-adv-x="394" d="M64 15Q72 11 81 9T108 6Q149 6 176 31T203 104Q203 135 191 167T150 239Q127 273 107 306T86 385Q86 428 107 460T165 510T250 529Q281 529 311 522T362 494T382 436Q382 425 377 411T360 387T331 377Q312 377 299 391T286
427Q286 448 294 466T315 500Q298 510 270 510Q233 510 210 486T186 419Q186 396 193 378T214 339T246 291Q272 250 288 215T305 142Q305 97 282 62T218 6T127 -14Q91 -14 58 -4T3 29T-18 91Q-18 109 -8 127T27 145Q52 145 63 125T75 77Q75 57 71 42T64 15Z" />
<glyph unicode="t" horiz-adv-x="342" d="M384 515L381 495H58L63 515H384ZM135 85Q127 54 139 41T171 27Q193 27 215 46T257 122L271 162H290L269 101Q248 37 212 12T128 -14Q85 -14 63 4T36 56T44 132L197 666Q227 667 254 670T305 680L135 85Z" />
<glyph unicode="u" horiz-adv-x="577" d="M396 348Q359 244 326 175T261 64T194 4T124 -14Q80 -14 60 5T38 59T51 137L148 430Q158 460 155 474T133 488Q116 488 99 469T61 394L46 353H27L52 426Q67 468 88 490T133 520T178 529Q222 529 239 509T255 456T239 383L146
102Q120 24 164 24Q186 24 212 46T265 111T320 210T372 336T417 482L396 348ZM410 85Q403 59 403 43T423 27Q444 27 461 48T496 121L511 163H530L505 89Q491 48 470 26T426 -5T379 -14Q360 -14 345 -7T321 15Q312 33 314 59T326 126L425 515Q456 516 483 519T534
529L410 85Z" />
<glyph unicode="v" horiz-adv-x="530" d="M472 362Q440 378 414 408T390 480Q392 506 407 518T441 530Q477 530 491 493T500 397Q494 339 478 281T436 169T372 75T287 10T181 -14Q132 -14 105 4T67 51T58 110Q61 168 93 232T178 362T302 490Q283 485 264 474T228
450T195 430T164 421Q145 421 132 432T103 444Q87 444 78 432T57 387L47 353H28L50 426Q67 487 92 508T144 529Q163 529 176 520T203 501T238 492Q260 492 280 498T319 520L329 539L350 529Q311 479 281 428T228 326T193 224T176 123Q172 70 184 47T219 23Q263
23 300 46T368 106T420 189T455 280T472 362Z" />
<glyph unicode="w" horiz-adv-x="683" d="M297 64Q265 30 225 8T137 -14Q91 -14 63 2T22 45T9 103Q9 151 37 201T110 302T212 399T326 489L338 490Q318 485 298 474T261 451T227 430T194 421Q175 421 162 432T132 444Q117 444 107 432T87 387L76 353H57L79 426Q99
486 123 507T173 528Q192 528 206 519T235 501T272 492Q294 492 313 498T351 520L364 539L385 529Q335 484 289 433T206 328T148 218T126 105Q126 59 140 40T179 21Q206 21 235 36T292 82L297 64ZM423 26Q467 26 500 51T556 116T590 203T605 295T601 374Q579 380
554 393T512 426T494 478Q494 503 508 516T541 529Q560 529 573 518T596 486T612 442T622 392Q630 347 627 292T607 184T562 85T490 13T386 -14Q354 -14 326 -2T281 40T263 123Q263 168 278 210T316 285T366 339T414 359Q429 359 437 348T447 321T450 290Q450 234
421 178T331 73L326 91Q372 129 399 182T427 290Q427 310 423 323T408 337Q393 337 375 312T344 248T331 166Q331 131 340 99T369 47T423 26Z" />
<glyph unicode="x" horiz-adv-x="539" d="M337 80Q341 54 349 44T371 34Q385 34 400 51T436 124L449 161H468L443 88Q429 47 409 25T367 -5T322 -14Q287 -14 262 6T230 80L190 435Q186 461 177 470T155 480Q146 480 136 474T115 448T91 391L78 354H59L84 427Q99
468 118 490T160 520T206 529Q245 529 268 509T297 432L337 80ZM409 465Q380 437 359 401T322 327T296 260Q296 260 286 260T276 261Q282 279 290 303T312 354T343 411T384 468Q413 502 437 515T487 529Q511 529 526 517T541 482Q541 459 525 443T481 426Q457 426
438 437T409 465ZM95 50Q139 93 172 150T222 255Q222 255 231 254T240 252Q230 224 215 191T178 121T122 48Q93 16 68 1T18 -14Q-8 -14 -22 -2T-36 32Q-36 56 -19 72T24 89Q50 89 67 77T95 50Z" />
<glyph unicode="y" horiz-adv-x="481" d="M291 47L211 -42L133 428Q128 458 122 469T103 481Q93 481 80 465T48 395L34 354H15L40 427Q61 488 92 508T157 529Q192 529 211 509T239 432L291 47ZM65 -140Q110 -117 159 -78T260 29Q318 102 364 191T430 368Q411 379
392 394T360 430T348 475Q350 501 365 515T405 529Q434 529 447 508T461 445Q461 395 445 338T400 220T336 105T264 3Q243 -23 212 -54T141 -116T53 -166Q26 -178 6 -183T-28 -188Q-52 -188 -68 -176T-85 -142Q-85 -119 -68 -105T-26 -91Q0 -91 22 -105T65 -140Z"
/>
<glyph unicode="z" horiz-adv-x="451" d="M28 45Q50 58 69 69T104 88T136 102T167 107Q191 107 210 99T249 83T292 75Q316 75 328 87T341 120Q341 146 321 163T269 187L275 202Q324 191 349 166T375 102Q375 74 363 49T325 8T256 -8Q228 -8 207 -1T167 15T127
32T75 39Q48 39 27 31T-16 0H-43L419 472Q396 460 377 448T339 426T305 412T273 406Q250 406 231 414T192 430T148 438Q126 438 113 427T99 393Q99 368 119 351T171 326L165 311Q118 322 92 346T65 410Q65 438 78 463T118 505T190 522Q218 522 238 515T278 499T318
483T370 476Q397 476 418 484T460 515H488L28 45Z" />
<glyph unicode="{" horiz-adv-x="324" d="M177 -188Q112 -188 78 -171T34 -124T28 -51T46 43Q63 110 71 154T79 227Q78 258 67 271T32 286H27L30 304H35Q67 307 89 328T130 402T172 547Q196 640 227 691T304 762T417 782L412 763Q388 763 371 757T341 729T313
664T280 547Q258 458 225 407T149 331T57 295Q107 282 132 257T166 198T170 125T154 43Q139 -18 132 -57T125 -119Q125 -150 139 -159T182 -169L177 -188Z" />
<glyph unicode="|" horiz-adv-x="335" d="M205 858V-195H149V858H205Z" />
<glyph unicode="}" horiz-adv-x="324" d="M148 782Q214 782 247 765T291 718T297 645T279 551Q263 484 255 440T246 367Q247 336 258 323T293 308H298L295 290H290Q259 288 237 266T196 193T153 47Q130 -46 99 -97T22 -168T-92 -188L-87 -169Q-63 -169 -46 -163T-15
-135T13 -70T45 47Q67 137 101 187T177 263T268 299Q219 313 193 338T160 396T156 469T171 551Q186 612 193 651T200 713Q200 744 186 753T143 763L148 782Z" />
<glyph unicode="~" horiz-adv-x="648" d="M414 229Q376 229 347 241T293 268T240 295T177 307Q149 307 123 294T76 249L62 254Q86 311 133 344T239 377Q277 377 306 365T360 338T413 311T475 299Q504 299 530 312T577 357L591 352Q567 296 520 263T414 229Z" />
<glyph unicode="&#xa0;" horiz-adv-x="254" />
<glyph unicode="&#xa1;" horiz-adv-x="265" d="M148 316Q127 232 116 150T97 -5T78 -130Q75 -158 59 -173T16 -188Q-16 -188 -29 -170T-35 -124Q-27 -89 -8 -41T37 64T87 186T130 319L148 316ZM108 446Q108 480 133 504T190 529Q216 529 231 514T246 474Q246 453
235 434T205 404T164 392Q138 392 123 407T108 446Z" />
<glyph unicode="&#xa2;" horiz-adv-x="448" d="M363 708L124 -181H102L341 708H363ZM333 509Q295 509 258 478T191 393T143 271T125 129Q125 78 145 55T197 32Q232 32 268 53T341 128L361 120Q342 87 311 56T240 6T154 -14Q91 -14 52 23T13 135Q13 182 27 236T68
342T133 436T221 503T328 529Q376 529 408 505T441 440Q441 419 431 398T403 364T360 350Q338 350 326 363T314 395Q314 428 338 451T394 482Q385 494 371 501T333 509Z" />
<glyph unicode="&#xa3;" horiz-adv-x="640" d="M411 317L405 297H58L64 317H411ZM438 417L432 397H85L91 417H438ZM505 721Q462 721 433 703T383 652T348 579T322 493L281 337Q271 300 257 271T224 218T184 172T139 126T93 74Q126 96 162 109T238 123Q277 123
307 112T368 91T433 80Q462 80 485 97T508 143Q508 169 491 185T441 208L447 225Q476 221 501 208T541 174T557 121Q557 87 538 56T485 6T410 -14Q373 -14 345 -1T291 31T237 63T170 77Q150 77 129 73T84 58Q61 23 35 5T-12 -14Q-25 -14 -25 -4Q-25 11 0 33T74
69Q91 103 108 144T145 258L193 439Q215 521 255 588T356 696T507 736Q561 736 588 713T615 660Q615 629 595 607T544 585Q524 585 511 596T497 628Q497 654 513 673T555 700Q555 709 540 715T505 721Z" />
<glyph unicode="&#xa4;" horiz-adv-x="599" d="M164 300Q164 260 183 228T233 177T302 158Q340 158 371 176T420 227T439 300Q439 340 421 372T371 424T302 443Q264 443 233 424T183 373T164 300ZM92 138L140 186Q123 210 113 239T102 300Q102 332 112 361T141
415L92 463L139 510L187 462Q211 480 240 489T302 499Q334 499 362 489T416 461L465 511L512 464L463 414Q481 390 490 361T500 300Q500 268 491 239T463 186L511 138L464 90L415 139Q391 122 363 112T302 102Q236 102 188 138L140 90L92 138Z" />
<glyph unicode="&#xa5;" horiz-adv-x="727" d="M537 217L532 197H140L145 217H537ZM559 297L554 277H162L167 297H559ZM372 106Q363 70 365 52T384 28T435 20L430 0Q414 1 391 1T342 2T290 3Q248 3 211 3T149 0L154 20Q188 22 207 28T237 52T257 106L326 380L371
317L416 336L450 416L372 106ZM708 702Q692 701 679 695T651 679Q620 657 578 606T492 472T406 270L321 265Q317 311 311 364T295 470T273 565T241 635T199 661Q181 661 170 650T151 614L125 538Q125 538 114 538T103 538L134 628Q151 677 176 699T246 722Q306
722 339 679T391 554T421 362Q458 458 504 532T600 658Q623 682 654 702T719 722Q756 722 772 701T787 653Q786 628 768 605T717 581Q691 581 680 596T669 630Q670 652 683 670T715 700Q714 701 712 701T708 702Z" />
<glyph unicode="&#xa6;" horiz-adv-x="339" d="M151 -195V326H207V-195H151ZM207 858V384H151V858H207Z" />
<glyph unicode="&#xa7;" horiz-adv-x="531" d="M481 731Q478 744 463 751T431 760T399 763Q365 763 334 751T281 710T259 633Q259 601 276 575T321 524T379 475Q413 447 437 423T476 373T490 315Q490 277 475 246T433 188T375 142T306 105L299 118Q324 131 347
148T387 190T405 246Q407 274 393 297T355 345T295 396Q256 428 226 456T178 515T160 582Q160 627 180 663T234 726T310 767T398 782Q419 782 444 778T493 763T530 735T545 692Q545 672 535 654T508 625T468 613Q445 613 432 626T419 659Q419 685 438 704T481 731ZM132
-169Q166 -169 198 -156T250 -114T271 -37Q271 -5 254 21T210 70T152 119Q119 148 94 172T55 222T41 279Q41 317 56 348T98 406T157 452T224 489L231 476Q208 463 183 445T142 401T125 344Q125 319 139 296T179 248T235 198Q275 166 305 138T353 79T371 12Q371
-33 351 -69T297 -132T221 -173T133 -188Q111 -188 86 -184T39 -169T2 -140T-13 -96Q-13 -76 -3 -59T24 -30T63 -19Q86 -19 99 -30T112 -63Q112 -90 94 -109T50 -137Q54 -149 68 -156T100 -166T132 -169Z" />
<glyph unicode="&#xa8;" horiz-adv-x="445" d="M156 677Q156 706 178 727T230 749Q254 749 269 733T285 693Q285 674 275 657T247 631T211 621Q185 621 171 637T156 677ZM373 677Q373 706 395 727T447 749Q472 749 487 733T502 693Q502 674 492 657T465 631T428
621Q403 621 388 637T373 677Z" />
<glyph unicode="&#xa9;" horiz-adv-x="920" d="M86 384Q86 467 117 539T202 665T329 751T484 782Q567 782 639 751T765 666T851 539T882 384Q882 302 851 230T766 103T639 17T484 -14Q402 -14 330 17T203 102T117 229T86 384ZM126 384Q126 308 154 242T231 126T345
47T484 18Q558 18 623 46T737 125T814 242T842 384Q842 460 814 526T737 642T623 721T484 750Q410 750 345 722T231 643T154 526T126 384ZM518 163Q543 163 568 172T617 203T659 265L678 258Q668 224 644 190T582 135T490 113Q427 113 376 143T294 233T264 379Q264
464 294 526T379 622T503 656Q545 656 583 643T646 605T671 542Q671 513 654 496T609 478Q583 478 565 494T547 539Q547 564 561 579T597 600Q587 616 564 626T513 637Q480 637 450 616T399 541T379 392Q379 306 399 256T450 185T518 163Z" />
<glyph unicode="&#xaa;" horiz-adv-x="480" d="M392 437Q386 416 388 406T404 396Q419 396 430 408T454 453L463 478H482L465 433Q450 392 426 376T366 360Q343 360 329 369T313 401T322 463L394 713Q445 713 484 722L392 437ZM215 392Q232 392 254 412T299 465T340
541T370 627L356 548Q329 477 301 436T243 378T182 360Q142 360 120 383T98 444Q98 489 120 537T180 628T261 696T347 722Q363 722 377 711T386 667L379 651Q380 677 373 687T354 698Q331 698 303 677T249 618T207 535T191 441Q191 417 197 405T215 392Z" />
<glyph unicode="&#xab;" horiz-adv-x="540" d="M335 529Q320 496 295 457T241 376T180 302T122 247Q142 229 162 198T199 128T228 53T247 -14H229Q187 62 137 127T22 244L23 250Q107 306 178 376T317 529H335ZM508 521Q495 490 471 451T418 373T360 301T303 247Q323
229 342 199T377 132T406 59T424 -6H406Q366 68 318 131T205 244L206 250Q288 305 357 373T490 521H508Z" />
<glyph unicode="&#xac;" horiz-adv-x="656" d="M91 340L100 370H601L542 165H506L556 340H91Z" />
<glyph unicode="&#xad;" horiz-adv-x="505" />
<glyph unicode="&#xae;" horiz-adv-x="694" d="M403 782Q461 782 511 761T600 701T660 612T682 503Q682 445 661 395T601 306T512 246T403 224Q345 224 295 245T206 305T146 394T124 503Q124 561 145 611T205 700T294 760T403 782ZM335 521Q369 521 383 520T405
518T424 514Q473 510 491 496T514 455L527 395Q530 383 532 374T544 365Q552 365 556 373L565 365Q558 354 547 350T518 345Q490 345 477 355T459 386L442 460Q439 480 431 490T402 503T337 506L335 521ZM403 750Q337 750 283 717T198 627T166 503Q166 436 197
380T283 290T403 256Q469 256 523 289T608 379T640 503Q640 571 609 627T523 716T403 750ZM413 676Q472 676 501 656T531 597Q531 578 520 559T478 526T390 509L330 506Q330 506 330 514T330 522H383Q431 522 446 540T461 588Q461 625 447 643T397 661Q376 661
370 655T363 630V404Q363 381 367 375T386 367V352Q375 352 361 352T331 353Q314 353 299 353T274 352V367Q288 369 292 375T297 404V623Q297 647 293 653T274 661V676Q284 675 298 675T327 675Q355 675 379 675T413 676Z" />
<glyph unicode="&#xaf;" horiz-adv-x="420" d="M483 712L477 687H157L163 712H483Z" />
<glyph unicode="&#xb0;" horiz-adv-x="334" d="M261 820Q310 820 346 788T383 700Q383 644 347 612T261 579Q213 579 177 611T140 700Q140 756 176 788T261 820ZM261 597Q284 597 306 608T343 642T358 699Q358 733 343 756T306 790T261 802Q239 802 217 791T180
756T165 699Q165 665 179 642T216 608T261 597Z" />
<glyph unicode="&#xb1;" horiz-adv-x="629" d="M-14 0L-5 30H496L487 0H-14ZM82 370H315L382 606H418L351 370H583L574 340H342L275 105H239L306 340H73L82 370Z" />
<glyph unicode="&#xb2;" horiz-adv-x="346" d="M297 754Q333 754 356 741T379 697Q379 666 358 639T303 586T237 539T179 498Q196 498 219 494T265 485T304 480Q324 480 336 489T349 513Q349 524 345 532L362 539Q368 531 371 522T374 501Q374 473 351 453T283
433Q252 433 225 441T157 451Q132 453 116 449T79 437L83 455Q100 467 128 484T187 524T246 571T291 622T308 676Q308 699 295 709T256 719Q230 719 204 708T151 668L137 679Q161 708 202 731T297 754Z" />
<glyph unicode="&#xb3;" horiz-adv-x="330" d="M301 754Q338 754 361 741T385 700Q385 679 371 660T334 627T286 602T238 586Q285 585 320 569T355 512Q355 475 325 446T247 395T144 362T41 346V364Q83 367 126 379T204 411T261 458T283 520Q283 547 270 559T232
572Q221 566 213 564T200 562Q194 562 188 565T182 575Q182 585 194 589T226 592Q265 607 290 630T315 684Q315 703 303 712T270 721Q244 721 216 710T156 667L142 679Q157 696 180 713T235 742T301 754Z" />
<glyph unicode="&#xb4;" horiz-adv-x="283" d="M138 608Q177 658 202 694T245 757T283 804Q301 824 321 827T356 818Q368 805 365 787T341 748Q322 729 295 710T232 666T148 599L138 608Z" />
<glyph unicode="&#xb6;" horiz-adv-x="663" d="M416 335Q396 255 386 190T373 86T373 48Q373 48 381 80T404 167T436 285T471 415T502 534T526 621T536 656Q534 656 523 633T496 571T461 479T425 368Q349 368 285 365T183 357T143 351Q143 349 179 345T277 338T416
335ZM355 -13Q240 -13 170 17T69 102T37 229Q37 328 73 415T173 568T323 671T508 709Q552 709 591 708T668 706Q686 706 704 706T740 708L735 689Q686 687 668 671T640 621L500 87Q479 8 445 -54T359 -152T237 -188Q204 -188 179 -182T138 -161T122 -126Q122 -101
141 -81T190 -60Q211 -60 224 -70T237 -99Q237 -119 226 -136T196 -167Q203 -169 211 -170T228 -172Q263 -172 285 -152T325 -96T355 -13Z" />
<glyph unicode="&#xb7;" horiz-adv-x="268" d="M55 241Q55 274 80 299T137 324Q163 324 178 309T193 269Q193 247 182 229T152 199T111 187Q85 187 70 202T55 241Z" />
<glyph unicode="&#xb8;" horiz-adv-x="306" d="M108 0L70 -71Q80 -68 92 -66T116 -63Q137 -63 150 -73T164 -104Q164 -133 143 -152T90 -179T28 -188Q-1 -188 -23 -181T-55 -167L-49 -152Q-41 -154 -27 -159T12 -164Q23 -164 40 -160T72 -145T86 -115Q86 -91 58
-91Q53 -91 44 -92T27 -98L80 0H108Z" />
<glyph unicode="&#xb9;" horiz-adv-x="258" d="M323 753L222 437H151L230 682Q206 669 179 657T110 634L115 653Q165 668 199 684T258 719T304 753H323Z" />
<glyph unicode="&#xba;" horiz-adv-x="438" d="M327 704Q301 704 278 680T236 615T207 529T196 437Q196 379 240 379Q267 379 290 403T332 467T360 554T371 646Q371 704 327 704ZM106 471Q106 507 120 550T163 632T234 696T332 722Q392 722 426 695T461 611Q461
575 447 532T404 450T333 386T235 361Q177 361 142 388T106 471Z" />
<glyph unicode="&#xbb;" horiz-adv-x="539" d="M292 529Q334 454 384 388T499 270L498 265Q415 209 343 139T204 -14H186Q201 19 226 58T280 138T341 213T399 268Q379 286 359 317T322 387T293 462T274 529H292ZM115 521Q155 448 204 384T316 270L315 265Q234
210 165 143T31 -6H13Q27 26 51 64T104 142T162 215T217 268Q198 286 179 316T144 383T115 456T97 521H115Z" />
<glyph unicode="&#xbc;" horiz-adv-x="627" d="M719 824L734 811L-99 -55L-114 -42L719 824ZM323 753L222 437H151L230 682Q206 669 179 657T110 634L115 653Q165 668 199 684T258 719T304 753H323ZM462 317L467 296L192 55L195 71H464L451 24H145L150 42L462
317ZM481 317L364 -85H304L400 247L462 317H481Z" />
<glyph unicode="&#xbd;" horiz-adv-x="611" d="M719 824L734 811L-99 -55L-114 -42L719 824ZM323 753L222 437H151L230 682Q206 669 179 657T110 634L115 653Q165 668 199 684T258 719T304 753H323ZM464 317Q500 317 523 304T546 260Q546 229 525 202T470 149T404
102T346 61Q363 61 386 57T432 48T471 43Q491 43 503 52T516 76Q516 87 512 95L529 102Q535 94 538 85T541 64Q541 36 518 16T450 -4Q419 -4 392 4T324 14Q299 16 283 12T246 0L250 18Q267 30 295 47T354 87T413 134T458 185T475 239Q475 262 462 272T423 282Q397
282 371 271T318 231L304 242Q328 271 369 294T464 317Z" />
<glyph unicode="&#xbe;" horiz-adv-x="721" d="M819 824L834 811L1 -55L-14 -42L819 824ZM301 754Q338 754 361 741T385 700Q385 679 371 660T334 627T286 602T238 586Q285 585 320 569T355 512Q355 475 325 446T247 395T144 362T41 346V364Q83 367 126 379T204
411T261 458T283 520Q283 547 270 559T232 572Q221 566 213 564T200 562Q194 562 188 565T182 575Q182 585 194 589T226 592Q265 607 290 630T315 684Q315 703 303 712T270 721Q244 721 216 710T156 667L142 679Q157 696 180 713T235 742T301 754ZM562 317L567
296L292 55L295 71H564L551 24H245L250 42L562 317ZM581 317L464 -85H404L500 247L562 317H581Z" />
<glyph unicode="&#xbf;" horiz-adv-x="460" d="M144 -169Q164 -169 187 -165T229 -152T255 -128Q241 -126 230 -112T219 -78Q220 -55 237 -41T279 -26Q302 -26 315 -39T328 -75Q328 -102 310 -123T261 -158T193 -180T117 -188Q46 -188 2 -162T-43 -85Q-43 -55
-27 -30T25 23T119 89Q164 121 194 142T239 184T254 232Q254 258 237 278T187 298Q160 298 132 288T91 261Q103 260 114 249T125 220Q125 202 111 188T72 173Q56 173 44 182T31 213Q31 239 48 258T93 290T153 309T215 316Q253 316 282 305T329 272T346 218Q346
181 324 152T266 96T185 36Q119 -7 89 -35T58 -101Q58 -131 80 -150T144 -169ZM203 446Q203 480 228 504T285 529Q311 529 326 514T341 474Q341 453 330 434T300 404T259 392Q233 392 218 407T203 446Z" />
<glyph unicode="&#xc0;" horiz-adv-x="637" d="M73 156Q38 107 33 78T48 35T109 20L104 0Q71 2 41 2T-16 3Q-40 3 -56 3T-89 0L-84 20Q-69 24 -54 34T-20 63T20 113L447 713Q454 713 460 713T474 713L514 84Q517 48 532 35T563 20L559 0Q537 2 503 2T438 3Q399
3 364 3T308 0L312 20Q360 22 380 37T398 104L372 587L388 600L73 156ZM158 288H450L442 268H140L158 288ZM497 770Q453 800 422 818T368 848T328 876Q315 887 308 905T312 940Q325 958 346 955T383 937Q400 923 414 902T450 850T506 780L497 770Z" />
<glyph unicode="&#xc1;" horiz-adv-x="637" d="M73 156Q38 107 33 78T48 35T109 20L104 0Q71 2 41 2T-16 3Q-40 3 -56 3T-89 0L-84 20Q-69 24 -54 34T-20 63T20 113L447 713Q454 713 460 713T474 713L514 84Q517 48 532 35T563 20L559 0Q537 2 503 2T438 3Q399
3 364 3T308 0L312 20Q360 22 380 37T398 104L372 587L388 600L73 156ZM158 288H450L442 268H140L158 288ZM446 783Q498 820 531 848T590 896T640 932Q651 938 666 941T694 942T714 923Q723 905 710 888T679 861Q655 848 625 838T552 813T453 772L446 783Z" />
<glyph unicode="&#xc2;" horiz-adv-x="637" d="M73 156Q38 107 33 78T48 35T109 20L104 0Q71 2 41 2T-16 3Q-40 3 -56 3T-89 0L-84 20Q-69 24 -54 34T-20 63T20 113L447 713Q454 713 460 713T474 713L514 84Q517 48 532 35T563 20L559 0Q537 2 503 2T438 3Q399
3 364 3T308 0L312 20Q360 22 380 37T398 104L372 587L388 600L73 156ZM158 288H450L442 268H140L158 288ZM471 837Q430 821 374 802T261 772L256 786Q332 810 397 847T503 924H521Q545 878 576 843T660 786L656 772Q610 780 578 790T521 812T471 837Z" />
<glyph unicode="&#xc3;" horiz-adv-x="637" d="M73 156Q38 107 33 78T48 35T109 20L104 0Q71 2 41 2T-16 3Q-40 3 -56 3T-89 0L-84 20Q-69 24 -54 34T-20 63T20 113L447 713Q454 713 460 713T474 713L514 84Q517 48 532 35T563 20L559 0Q537 2 503 2T438 3Q399
3 364 3T308 0L312 20Q360 22 380 37T398 104L372 587L388 600L73 156ZM158 288H450L442 268H140L158 288ZM426 906Q461 906 483 895T523 870T559 844T604 833Q623 833 641 846T677 891L695 886Q670 824 631 798T553 771Q518 771 495 782T455 807T420 833T374 844Q355
844 337 831T302 786L284 791Q308 853 347 879T426 906Z" />
<glyph unicode="&#xc4;" horiz-adv-x="637" d="M73 156Q38 107 33 78T48 35T109 20L104 0Q71 2 41 2T-16 3Q-40 3 -56 3T-89 0L-84 20Q-69 24 -54 34T-20 63T20 113L447 713Q454 713 460 713T474 713L514 84Q517 48 532 35T563 20L559 0Q537 2 503 2T438 3Q399
3 364 3T308 0L312 20Q360 22 380 37T398 104L372 587L388 600L73 156ZM158 288H450L442 268H140L158 288ZM309 826Q309 855 331 876T382 898Q407 898 422 882T437 842Q437 822 427 806T400 780T364 770Q338 770 324 786T309 826ZM530 826Q530 855 552 876T604
898Q628 898 643 882T659 842Q659 822 649 806T621 780T585 770Q559 770 545 786T530 826Z" />
<glyph unicode="&#xc5;" horiz-adv-x="637" d="M73 156Q38 107 33 78T48 35T109 20L104 0Q71 2 41 2T-16 3Q-40 3 -56 3T-89 0L-84 20Q-69 24 -54 34T-20 63T20 113L447 713Q454 713 460 713T474 713L514 84Q517 48 532 35T563 20L559 0Q537 2 503 2T438 3Q399
3 364 3T308 0L312 20Q360 22 380 37T398 104L372 587L388 600L73 156ZM158 288H450L442 268H140L158 288ZM490 929Q528 929 554 907T580 847Q580 819 564 795T522 757T464 742Q428 742 403 764T377 824Q377 854 392 877T433 915T490 929ZM468 763Q490 763 510
774T542 804T554 848Q554 878 533 893T487 908Q454 908 429 883T404 825Q404 794 424 779T468 763Z" />
<glyph unicode="&#xc6;" horiz-adv-x="900" d="M631 773L38 94Q19 72 12 57T18 32T71 20V0Q58 2 34 2T-15 3Q-33 3 -51 3T-82 0V20Q-51 22 4 84L605 773H631ZM246 346L265 366H709L705 346H246ZM638 366Q668 366 686 382T717 423T741 478H763Q750 439 744 414T729
356Q723 334 718 309T703 234H681Q681 251 684 270T686 305T674 333T634 346L638 366ZM471 106Q462 70 463 52T479 29T528 23H621Q669 23 700 40T755 95T800 200H822Q817 187 812 168T801 128Q796 109 788 74T775 0Q724 2 662 2T549 3Q526 3 491 3T414 3T330 2T249
0L253 20Q287 22 306 28T336 52T356 106L488 602Q498 639 496 656T479 680T429 688L434 708Q471 707 514 707T598 706T674 705T733 705Q779 705 836 705T940 708Q927 673 917 640T902 590Q897 572 894 556T889 528H867Q883 617 865 651T786 685H703Q670 685 652
680T623 657T603 602L471 106Z" />
<glyph unicode="&#xc7;" horiz-adv-x="678" d="M723 708Q708 669 692 614T659 478H637Q645 530 644 566T628 628Q609 665 575 683T501 702Q450 702 402 673T313 593T241 478T192 344T174 205Q174 105 212 57T315 8Q355 8 401 27T483 82Q510 109 529 145T573 240H595Q570
149 557 94T536 0H514Q517 21 517 34Q517 56 509 59T484 51Q457 33 430 19T369 -5T293 -14Q174 -14 111 47T48 225Q48 294 69 364T131 499T227 613T351 692T498 722Q541 722 568 713T613 689T647 657Q661 643 673 654T702 708H723ZM312 5L277 -69Q289 -66 303 -64T331
-61Q357 -61 372 -72T388 -104Q388 -133 363 -152T301 -179T230 -188Q194 -188 167 -181T127 -167L133 -152Q142 -154 162 -159T214 -164Q229 -164 252 -160T294 -145T312 -115Q312 -91 276 -91Q269 -91 258 -92T237 -98L285 5H312Z" />
<glyph unicode="&#xc8;" horiz-adv-x="615" d="M208 346L214 366H395L390 346H208ZM311 366Q343 366 364 378T399 411T424 453T442 494H465Q447 441 440 412T426 356Q421 339 417 321T408 279T395 218H372Q374 241 375 263T372 304T352 334T304 346L311 366ZM577
528Q585 587 581 621T554 670T479 685H420Q387 685 369 680T339 657T318 602L185 106Q175 70 176 52T194 29T244 23H305Q365 23 402 40T465 95T517 200H540Q535 187 529 168T518 128Q513 109 505 74T492 0Q441 2 377 2T263 3Q240 3 205 3T127 3T43 2T-38 0L-33
20Q1 22 20 28T49 52T70 106L203 602Q213 639 212 656T195 680T145 688L150 708Q188 707 230 707T315 706T392 705T451 705Q496 705 551 705T652 708Q639 673 629 642T614 590Q609 572 606 556T600 528H577ZM460 770Q416 800 385 818T331 848T291 876Q278 887 271
905T275 940Q288 958 309 955T346 937Q363 923 377 902T413 850T469 780L460 770Z" />
<glyph unicode="&#xc9;" horiz-adv-x="615" d="M208 346L214 366H395L390 346H208ZM311 366Q343 366 364 378T399 411T424 453T442 494H465Q447 441 440 412T426 356Q421 339 417 321T408 279T395 218H372Q374 241 375 263T372 304T352 334T304 346L311 366ZM577
528Q585 587 581 621T554 670T479 685H420Q387 685 369 680T339 657T318 602L185 106Q175 70 176 52T194 29T244 23H305Q365 23 402 40T465 95T517 200H540Q535 187 529 168T518 128Q513 109 505 74T492 0Q441 2 377 2T263 3Q240 3 205 3T127 3T43 2T-38 0L-33
20Q1 22 20 28T49 52T70 106L203 602Q213 639 212 656T195 680T145 688L150 708Q188 707 230 707T315 706T392 705T451 705Q496 705 551 705T652 708Q639 673 629 642T614 590Q609 572 606 556T600 528H577ZM410 783Q462 820 495 848T554 896T604 932Q615 938 630
941T658 942T678 923Q687 905 674 888T643 861Q619 848 589 838T516 813T417 772L410 783Z" />
<glyph unicode="&#xca;" horiz-adv-x="615" d="M208 346L214 366H395L390 346H208ZM311 366Q343 366 364 378T399 411T424 453T442 494H465Q447 441 440 412T426 356Q421 339 417 321T408 279T395 218H372Q374 241 375 263T372 304T352 334T304 346L311 366ZM577
528Q585 587 581 621T554 670T479 685H420Q387 685 369 680T339 657T318 602L185 106Q175 70 176 52T194 29T244 23H305Q365 23 402 40T465 95T517 200H540Q535 187 529 168T518 128Q513 109 505 74T492 0Q441 2 377 2T263 3Q240 3 205 3T127 3T43 2T-38 0L-33
20Q1 22 20 28T49 52T70 106L203 602Q213 639 212 656T195 680T145 688L150 708Q188 707 230 707T315 706T392 705T451 705Q496 705 551 705T652 708Q639 673 629 642T614 590Q609 572 606 556T600 528H577ZM434 837Q393 821 337 802T224 772L219 786Q295 810 360
847T466 924H484Q508 878 539 843T623 786L619 772Q573 780 541 790T484 812T434 837Z" />
<glyph unicode="&#xcb;" horiz-adv-x="615" d="M208 346L214 366H395L390 346H208ZM311 366Q343 366 364 378T399 411T424 453T442 494H465Q447 441 440 412T426 356Q421 339 417 321T408 279T395 218H372Q374 241 375 263T372 304T352 334T304 346L311 366ZM577
528Q585 587 581 621T554 670T479 685H420Q387 685 369 680T339 657T318 602L185 106Q175 70 176 52T194 29T244 23H305Q365 23 402 40T465 95T517 200H540Q535 187 529 168T518 128Q513 109 505 74T492 0Q441 2 377 2T263 3Q240 3 205 3T127 3T43 2T-38 0L-33
20Q1 22 20 28T49 52T70 106L203 602Q213 639 212 656T195 680T145 688L150 708Q188 707 230 707T315 706T392 705T451 705Q496 705 551 705T652 708Q639 673 629 642T614 590Q609 572 606 556T600 528H577ZM272 826Q272 855 294 876T345 898Q370 898 385 882T400
842Q400 822 390 806T363 780T327 770Q301 770 287 786T272 826ZM493 826Q493 855 515 876T567 898Q591 898 606 882T622 842Q622 822 612 806T584 780T548 770Q522 770 508 786T493 826Z" />
<glyph unicode="&#xcc;" horiz-adv-x="357" d="M185 106Q176 70 177 52T194 28T244 20L240 0Q215 2 178 2T101 3Q59 3 24 3T-36 0L-31 20Q2 22 20 28T50 52T70 106L202 602Q212 639 210 656T193 680T143 688L148 708Q170 707 206 706T285 705Q324 705 361 706T425
708L420 688Q386 687 367 681T338 657T317 602L185 106ZM587 770Q543 800 512 818T458 848T418 876Q405 887 398 905T402 940Q415 958 436 955T473 937Q490 923 504 902T540 850T596 780L587 770Z" />
<glyph unicode="&#xcd;" horiz-adv-x="357" d="M185 106Q176 70 177 52T194 28T244 20L240 0Q215 2 178 2T101 3Q59 3 24 3T-36 0L-31 20Q2 22 20 28T50 52T70 106L202 602Q212 639 210 656T193 680T143 688L148 708Q170 707 206 706T285 705Q324 705 361 706T425
708L420 688Q386 687 367 681T338 657T317 602L185 106ZM280 783Q332 820 365 848T424 896T474 932Q485 938 500 941T528 942T548 923Q557 905 544 888T513 861Q489 848 459 838T386 813T287 772L280 783Z" />
<glyph unicode="&#xce;" horiz-adv-x="357" d="M185 106Q176 70 177 52T194 28T244 20L240 0Q215 2 178 2T101 3Q59 3 24 3T-36 0L-31 20Q2 22 20 28T50 52T70 106L202 602Q212 639 210 656T193 680T143 688L148 708Q170 707 206 706T285 705Q324 705 361 706T425
708L420 688Q386 687 367 681T338 657T317 602L185 106ZM561 837Q520 821 464 802T351 772L346 786Q422 810 487 847T593 924H611Q635 878 666 843T750 786L746 772Q700 780 668 790T611 812T561 837Z" />
<glyph unicode="&#xcf;" horiz-adv-x="357" d="M185 106Q176 70 177 52T194 28T244 20L240 0Q215 2 178 2T101 3Q59 3 24 3T-36 0L-31 20Q2 22 20 28T50 52T70 106L202 602Q212 639 210 656T193 680T143 688L148 708Q170 707 206 706T285 705Q324 705 361 706T425
708L420 688Q386 687 367 681T338 657T317 602L185 106ZM399 826Q399 855 421 876T472 898Q497 898 512 882T527 842Q527 822 517 806T490 780T454 770Q428 770 414 786T399 826ZM620 826Q620 855 642 876T694 898Q718 898 733 882T749 842Q749 822 739 806T711
780T675 770Q649 770 635 786T620 826Z" />
<glyph unicode="&#xd0;" horiz-adv-x="740" d="M721 481Q721 409 700 339T638 208T538 101T405 27T241 0Q226 0 202 1T150 2T97 3Q74 3 50 3T4 2T-33 0L-30 20Q2 22 20 28T50 52T70 106L201 602Q210 634 210 652T195 679T143 688L146 708Q162 707 184 706T233
705T282 705Q304 706 332 706T387 707T433 708Q576 708 648 651T721 481ZM233 18Q306 18 364 44T468 118T543 228T588 361T603 508Q603 598 557 644T407 690Q378 690 362 683T336 658T316 604L185 104Q177 74 176 55T187 27T233 18ZM698 622L692 597H276L282 622H698Z"
/>
<glyph unicode="&#xd1;" horiz-adv-x="788" d="M508 -5L268 619Q268 619 266 617T260 611T255 605T252 602Q260 639 258 656T238 680T181 688L186 708Q202 707 225 706T275 705Q322 705 356 708L554 171Q554 171 552 159T548 126T542 83T537 41T532 8T530 -5H508ZM813
734Q786 733 766 719T731 682Q685 614 637 443T530 -5L516 23Q531 90 548 167T584 323T624 472T667 599T713 690Q732 717 758 735T821 754Q859 754 875 736T892 692Q892 662 874 638T823 613Q797 613 786 627T774 659Q774 682 788 701T821 732Q819 733 818 733T813
734ZM4 -54Q31 -53 52 -39T88 -1Q117 45 146 143T206 380T268 685L285 664Q269 582 252 498T216 333T179 183T141 64T104 -11Q86 -35 62 -54T-3 -74Q-42 -74 -58 -56T-75 -11Q-75 19 -56 43T-5 67Q22 67 32 53T43 21Q43 -2 30 -21T-3 -52Q-2 -53 0 -53T4 -54ZM481
906Q516 906 538 895T578 870T614 844T659 833Q678 833 696 846T732 891L750 886Q725 824 686 798T608 771Q573 771 550 782T510 807T475 833T429 844Q410 844 392 831T357 786L339 791Q363 853 402 879T481 906Z" />
<glyph unicode="&#xd2;" horiz-adv-x="745" d="M470 704Q425 704 382 677T303 601T238 490T194 356T178 213Q178 115 214 60T306 4Q351 4 394 31T473 107T538 218T582 352T598 495Q598 593 562 648T470 704ZM50 226Q50 292 69 362T126 496T216 611T335 692T479
722Q595 722 661 660T727 481Q727 415 707 346T650 212T560 97T441 16T297 -14Q181 -14 116 48T50 226ZM510 770Q466 800 435 818T381 848T341 876Q328 887 321 905T325 940Q338 958 359 955T396 937Q413 923 427 902T463 850T519 780L510 770Z" />
<glyph unicode="&#xd3;" horiz-adv-x="745" d="M470 704Q425 704 382 677T303 601T238 490T194 356T178 213Q178 115 214 60T306 4Q351 4 394 31T473 107T538 218T582 352T598 495Q598 593 562 648T470 704ZM50 226Q50 292 69 362T126 496T216 611T335 692T479
722Q595 722 661 660T727 481Q727 415 707 346T650 212T560 97T441 16T297 -14Q181 -14 116 48T50 226ZM460 783Q512 820 545 848T604 896T654 932Q665 938 680 941T708 942T728 923Q737 905 724 888T693 861Q669 848 639 838T566 813T467 772L460 783Z" />
<glyph unicode="&#xd4;" horiz-adv-x="745" d="M470 704Q425 704 382 677T303 601T238 490T194 356T178 213Q178 115 214 60T306 4Q351 4 394 31T473 107T538 218T582 352T598 495Q598 593 562 648T470 704ZM50 226Q50 292 69 362T126 496T216 611T335 692T479
722Q595 722 661 660T727 481Q727 415 707 346T650 212T560 97T441 16T297 -14Q181 -14 116 48T50 226ZM484 837Q443 821 387 802T274 772L269 786Q345 810 410 847T516 924H534Q558 878 589 843T673 786L669 772Q623 780 591 790T534 812T484 837Z" />
<glyph unicode="&#xd5;" horiz-adv-x="745" d="M470 704Q425 704 382 677T303 601T238 490T194 356T178 213Q178 115 214 60T306 4Q351 4 394 31T473 107T538 218T582 352T598 495Q598 593 562 648T470 704ZM50 226Q50 292 69 362T126 496T216 611T335 692T479
722Q595 722 661 660T727 481Q727 415 707 346T650 212T560 97T441 16T297 -14Q181 -14 116 48T50 226ZM439 906Q474 906 496 895T536 870T572 844T617 833Q636 833 654 846T690 891L708 886Q683 824 644 798T566 771Q531 771 508 782T468 807T433 833T387 844Q368
844 350 831T315 786L297 791Q321 853 360 879T439 906Z" />
<glyph unicode="&#xd6;" horiz-adv-x="745" d="M470 704Q425 704 382 677T303 601T238 490T194 356T178 213Q178 115 214 60T306 4Q351 4 394 31T473 107T538 218T582 352T598 495Q598 593 562 648T470 704ZM50 226Q50 292 69 362T126 496T216 611T335 692T479
722Q595 722 661 660T727 481Q727 415 707 346T650 212T560 97T441 16T297 -14Q181 -14 116 48T50 226ZM322 826Q322 855 344 876T395 898Q420 898 435 882T450 842Q450 822 440 806T413 780T377 770Q351 770 337 786T322 826ZM543 826Q543 855 565 876T617 898Q641
898 656 882T672 842Q672 822 662 806T634 780T598 770Q572 770 558 786T543 826Z" />
<glyph unicode="&#xd7;" horiz-adv-x="507" d="M24 182L247 355L122 530L148 548L271 373L498 550L514 528L287 352L412 179L387 161L263 334L39 160L24 182Z" />
<glyph unicode="&#xd8;" horiz-adv-x="745" d="M470 704Q425 704 382 677T303 601T238 490T194 356T178 213Q178 115 214 60T306 4Q351 4 394 31T473 107T538 218T582 352T598 495Q598 593 562 648T470 704ZM50 226Q50 292 69 362T126 496T216 611T335 692T479
722Q595 722 661 660T727 481Q727 415 707 346T650 212T560 97T441 16T297 -14Q181 -14 116 48T50 226ZM643 632L778 773L793 760L653 612L643 632ZM144 76L3 -73L-14 -59L131 94L144 76ZM146 95L634 632L644 612L159 77L146 95Z" />
<glyph unicode="&#xd9;" horiz-adv-x="686" d="M635 576Q647 619 645 642T625 675T570 688L575 708Q593 707 623 706T678 705Q704 705 729 706T770 708L765 688Q732 686 712 676T680 644T658 580L583 291Q547 153 485 79Q449 37 396 12T280 -14Q223 -14 181 1T113
48Q80 89 80 145T104 288L187 602Q197 639 195 656T178 680T128 688L134 708Q156 707 194 706T275 705Q313 705 348 706T410 708L404 688Q370 687 351 681T322 657T301 602L213 271Q199 216 193 171T195 92T228 40T299 21Q374 21 424 54T506 147T557 280L635 576ZM516
770Q472 800 441 818T387 848T347 876Q334 887 327 905T331 940Q344 958 365 955T402 937Q419 923 433 902T469 850T525 780L516 770Z" />
<glyph unicode="&#xda;" horiz-adv-x="686" d="M635 576Q647 619 645 642T625 675T570 688L575 708Q593 707 623 706T678 705Q704 705 729 706T770 708L765 688Q732 686 712 676T680 644T658 580L583 291Q547 153 485 79Q449 37 396 12T280 -14Q223 -14 181 1T113
48Q80 89 80 145T104 288L187 602Q197 639 195 656T178 680T128 688L134 708Q156 707 194 706T275 705Q313 705 348 706T410 708L404 688Q370 687 351 681T322 657T301 602L213 271Q199 216 193 171T195 92T228 40T299 21Q374 21 424 54T506 147T557 280L635 576ZM465
783Q517 820 550 848T609 896T659 932Q670 938 685 941T713 942T733 923Q742 905 729 888T698 861Q674 848 644 838T571 813T472 772L465 783Z" />
<glyph unicode="&#xdb;" horiz-adv-x="686" d="M635 576Q647 619 645 642T625 675T570 688L575 708Q593 707 623 706T678 705Q704 705 729 706T770 708L765 688Q732 686 712 676T680 644T658 580L583 291Q547 153 485 79Q449 37 396 12T280 -14Q223 -14 181 1T113
48Q80 89 80 145T104 288L187 602Q197 639 195 656T178 680T128 688L134 708Q156 707 194 706T275 705Q313 705 348 706T410 708L404 688Q370 687 351 681T322 657T301 602L213 271Q199 216 193 171T195 92T228 40T299 21Q374 21 424 54T506 147T557 280L635 576ZM490
837Q449 821 393 802T280 772L275 786Q351 810 416 847T522 924H540Q564 878 595 843T679 786L675 772Q629 780 597 790T540 812T490 837Z" />
<glyph unicode="&#xdc;" horiz-adv-x="686" d="M635 576Q647 619 645 642T625 675T570 688L575 708Q593 707 623 706T678 705Q704 705 729 706T770 708L765 688Q732 686 712 676T680 644T658 580L583 291Q547 153 485 79Q449 37 396 12T280 -14Q223 -14 181 1T113
48Q80 89 80 145T104 288L187 602Q197 639 195 656T178 680T128 688L134 708Q156 707 194 706T275 705Q313 705 348 706T410 708L404 688Q370 687 351 681T322 657T301 602L213 271Q199 216 193 171T195 92T228 40T299 21Q374 21 424 54T506 147T557 280L635 576ZM328
826Q328 855 350 876T401 898Q426 898 441 882T456 842Q456 822 446 806T419 780T383 770Q357 770 343 786T328 826ZM549 826Q549 855 571 876T623 898Q647 898 662 882T678 842Q678 822 668 806T640 780T604 770Q578 770 564 786T549 826Z" />
<glyph unicode="&#xdd;" horiz-adv-x="691" d="M361 106Q352 70 354 52T373 28T424 20L419 0Q403 1 380 1T331 2T279 3Q237 3 200 3T138 0L143 20Q177 22 196 28T226 52T246 106L315 380L360 317L405 336L439 416L361 106ZM697 702Q681 701 667 695T640 679Q609
657 567 606T481 472T395 270L310 265Q306 311 300 364T284 470T261 565T229 635T187 661Q170 661 159 650T140 614L114 538Q114 538 103 538T92 538L123 628Q139 677 164 699T235 722Q294 722 328 679T380 554T410 362Q447 458 493 532T589 658Q612 682 643 702T707
722Q745 722 761 701T776 653Q775 628 757 605T706 581Q680 581 669 596T658 630Q659 652 672 670T704 700Q703 701 701 701T697 702ZM460 783Q512 820 545 848T604 896T654 932Q665 938 680 941T708 942T728 923Q737 905 724 888T693 861Q669 848 639 838T566
813T467 772L460 783Z" />
<glyph unicode="&#xde;" horiz-adv-x="624" d="M259 569Q295 569 331 570T405 571Q513 571 564 530T616 420Q616 342 567 281T431 184T227 148H187Q187 148 189 158T192 168H237Q307 168 356 189T435 247T479 333T493 436Q493 493 465 522T372 552Q344 552 328
551T297 549T260 546L259 569ZM185 106Q176 70 177 52T194 28T244 20L240 0Q215 2 178 2T101 3Q59 3 24 3T-36 0L-31 20Q2 22 20 28T50 52T70 106L202 602Q212 639 210 656T193 680T143 688L148 708Q170 707 206 706T285 705Q324 705 361 706T425 708L420 688Q386
687 367 681T338 657T317 602L185 106Z" />
<glyph unicode="&#xdf;" horiz-adv-x="567" d="M377 767Q336 767 310 728T259 598L56 -174Q26 -175 -1 -178T-52 -188L130 509Q154 598 185 659T266 751T393 782Q449 782 482 768T531 730T546 682Q546 654 533 630T498 583T450 540T398 495Q383 482 375 471T363
447T359 420Q359 394 370 373T399 331T433 290Q453 267 468 244T492 198T501 146Q501 96 475 61T405 6T311 -14Q277 -14 247 -4T199 27T180 79Q180 104 193 120T225 136Q244 136 254 124T269 94T273 62Q273 48 270 36T261 13Q268 10 276 8T298 6Q338 6 365 33T393
108Q393 137 382 169T346 237Q329 263 309 295T288 368Q288 400 302 421T340 462T386 506Q417 538 433 578T449 664Q449 718 429 742T377 767Z" />
<glyph unicode="&#xe0;" horiz-adv-x="535" d="M146 25Q168 25 195 51T250 122T302 228T342 356L324 247Q290 152 255 95T182 12T106 -14Q56 -14 31 19T6 108Q6 158 22 215T68 328T136 429T218 501T306 529Q340 529 358 498T367 406L356 400Q363 447 351 475T310
504Q286 504 259 480T207 413T160 317T126 208T114 97Q114 57 122 41T146 25ZM385 515Q415 516 443 519T495 529L368 86Q365 75 363 62T363 38T382 28Q400 28 418 47T454 122L468 163H487L462 90Q448 49 428 27T386 -4T342 -14Q298 -14 280 14Q267 36 271 67T285
133L385 515ZM360 599Q324 648 297 679T249 733T215 778Q202 801 205 818T223 844Q240 852 258 846T290 817Q303 795 312 767T334 700T373 605L360 599Z" />
<glyph unicode="&#xe1;" horiz-adv-x="535" d="M146 25Q168 25 195 51T250 122T302 228T342 356L324 247Q290 152 255 95T182 12T106 -14Q56 -14 31 19T6 108Q6 158 22 215T68 328T136 429T218 501T306 529Q340 529 358 498T367 406L356 400Q363 447 351 475T310
504Q286 504 259 480T207 413T160 317T126 208T114 97Q114 57 122 41T146 25ZM385 515Q415 516 443 519T495 529L368 86Q365 75 363 62T363 38T382 28Q400 28 418 47T454 122L468 163H487L462 90Q448 49 428 27T386 -4T342 -14Q298 -14 280 14Q267 36 271 67T285
133L385 515ZM301 608Q340 658 365 694T408 757T446 804Q464 824 484 827T519 818Q531 805 528 787T504 748Q485 729 458 710T395 666T311 599L301 608Z" />
<glyph unicode="&#xe2;" horiz-adv-x="535" d="M146 25Q168 25 195 51T250 122T302 228T342 356L324 247Q290 152 255 95T182 12T106 -14Q56 -14 31 19T6 108Q6 158 22 215T68 328T136 429T218 501T306 529Q340 529 358 498T367 406L356 400Q363 447 351 475T310
504Q286 504 259 480T207 413T160 317T126 208T114 97Q114 57 122 41T146 25ZM385 515Q415 516 443 519T495 529L368 86Q365 75 363 62T363 38T382 28Q400 28 418 47T454 122L468 163H487L462 90Q448 49 428 27T386 -4T342 -14Q298 -14 280 14Q267 36 271 67T285
133L385 515ZM350 708Q316 683 269 658T173 614L168 628Q238 658 296 707T391 808H409Q421 745 447 702T528 628L524 614Q461 630 422 654T350 708Z" />
<glyph unicode="&#xe3;" horiz-adv-x="535" d="M146 25Q168 25 195 51T250 122T302 228T342 356L324 247Q290 152 255 95T182 12T106 -14Q56 -14 31 19T6 108Q6 158 22 215T68 328T136 429T218 501T306 529Q340 529 358 498T367 406L356 400Q363 447 351 475T310
504Q286 504 259 480T207 413T160 317T126 208T114 97Q114 57 122 41T146 25ZM385 515Q415 516 443 519T495 529L368 86Q365 75 363 62T363 38T382 28Q400 28 418 47T454 122L468 163H487L462 90Q448 49 428 27T386 -4T342 -14Q298 -14 280 14Q267 36 271 67T285
133L385 515ZM321 774Q351 774 370 763T405 738T435 712T474 701Q492 701 509 714T544 759L562 754Q538 693 500 666T424 639Q394 639 375 650T340 675T310 701T272 712Q253 712 236 699T201 654L183 659Q208 721 246 747T321 774Z" />
<glyph unicode="&#xe4;" horiz-adv-x="535" d="M146 25Q168 25 195 51T250 122T302 228T342 356L324 247Q290 152 255 95T182 12T106 -14Q56 -14 31 19T6 108Q6 158 22 215T68 328T136 429T218 501T306 529Q340 529 358 498T367 406L356 400Q363 447 351 475T310
504Q286 504 259 480T207 413T160 317T126 208T114 97Q114 57 122 41T146 25ZM385 515Q415 516 443 519T495 529L368 86Q365 75 363 62T363 38T382 28Q400 28 418 47T454 122L468 163H487L462 90Q448 49 428 27T386 -4T342 -14Q298 -14 280 14Q267 36 271 67T285
133L385 515ZM207 677Q207 706 229 727T281 749Q305 749 320 733T336 693Q336 674 326 657T298 631T262 621Q236 621 222 637T207 677ZM424 677Q424 706 446 727T498 749Q523 749 538 733T553 693Q553 674 543 657T516 631T479 621Q454 621 439 637T424 677Z" />
<glyph unicode="&#xe5;" horiz-adv-x="535" d="M146 25Q168 25 195 51T250 122T302 228T342 356L324 247Q290 152 255 95T182 12T106 -14Q56 -14 31 19T6 108Q6 158 22 215T68 328T136 429T218 501T306 529Q340 529 358 498T367 406L356 400Q363 447 351 475T310
504Q286 504 259 480T207 413T160 317T126 208T114 97Q114 57 122 41T146 25ZM385 515Q415 516 443 519T495 529L368 86Q365 75 363 62T363 38T382 28Q400 28 418 47T454 122L468 163H487L462 90Q448 49 428 27T386 -4T342 -14Q298 -14 280 14Q267 36 271 67T285
133L385 515ZM398 793Q436 793 462 771T488 711Q488 683 472 659T430 621T372 606Q335 606 310 628T285 688Q285 718 300 741T341 779T398 793ZM376 627Q398 627 418 638T450 668T462 712Q462 742 440 757T394 772Q361 772 336 747T311 689Q311 658 331 643T376
627Z" />
<glyph unicode="&#xe6;" horiz-adv-x="684" d="M341 224Q391 242 434 260T503 299Q541 330 562 373T584 469Q584 510 552 510Q531 510 505 488T454 428T408 341T375 238T363 130Q363 78 382 56T434 34Q467 34 505 54T582 128L602 120Q582 87 550 56T478 6T390
-14Q349 -14 317 2T268 49T250 127Q250 173 265 227T310 335T380 432T469 503T574 529Q617 529 645 510T674 451Q674 412 652 379T591 319T509 270T420 233T340 208L341 224ZM153 25Q172 25 194 37T240 78T282 155L290 141Q259 66 212 26T105 -14Q51 -14 26 17T0
100Q0 152 21 210T80 323T164 421T264 491T368 517Q383 517 398 512T426 495T446 459L434 450Q424 480 406 487T379 494Q347 494 310 472T238 412T173 322T126 212T108 91Q108 61 119 43T153 25Z" />
<glyph unicode="&#xe7;" horiz-adv-x="442" d="M335 509Q297 509 260 478T193 393T145 271T127 129Q127 78 147 55T199 32Q233 32 269 53T343 128L363 120Q343 87 312 56T242 6T156 -14Q93 -14 54 23T15 135Q15 182 29 236T69 342T135 436T223 503T330 529Q377
529 409 505T442 440Q442 419 432 398T404 364T362 350Q340 350 328 363T316 395Q316 428 340 451T396 482Q387 494 373 501T335 509ZM165 0L127 -71Q137 -68 149 -66T173 -63Q194 -63 207 -73T221 -104Q221 -133 200 -152T147 -179T85 -188Q56 -188 34 -181T2
-167L8 -152Q16 -154 30 -159T69 -164Q80 -164 97 -160T129 -145T143 -115Q143 -91 115 -91Q110 -91 101 -92T84 -98L137 0H165Z" />
<glyph unicode="&#xe8;" horiz-adv-x="442" d="M100 224Q151 242 193 261T263 302Q300 333 321 375T343 469Q343 495 339 502T327 510Q303 510 276 488T221 428T172 341T136 238T122 130Q122 78 141 56T193 34Q226 34 266 54T345 128L361 120Q341 87 309 56T237
6T149 -14Q108 -14 76 2T27 49T9 127Q9 173 25 227T72 335T145 432T239 503T349 529Q385 529 409 512T433 459Q433 419 411 385T350 322T268 272T179 234T99 208L100 224ZM335 599Q299 648 272 679T224 733T190 778Q177 801 180 818T198 844Q215 852 233 846T265
817Q278 795 287 767T309 700T348 605L335 599Z" />
<glyph unicode="&#xe9;" horiz-adv-x="442" d="M100 224Q151 242 193 261T263 302Q300 333 321 375T343 469Q343 495 339 502T327 510Q303 510 276 488T221 428T172 341T136 238T122 130Q122 78 141 56T193 34Q226 34 266 54T345 128L361 120Q341 87 309 56T237
6T149 -14Q108 -14 76 2T27 49T9 127Q9 173 25 227T72 335T145 432T239 503T349 529Q385 529 409 512T433 459Q433 419 411 385T350 322T268 272T179 234T99 208L100 224ZM277 608Q316 658 341 694T384 757T422 804Q440 824 460 827T495 818Q507 805 504 787T480
748Q461 729 434 710T371 666T287 599L277 608Z" />
<glyph unicode="&#xea;" horiz-adv-x="442" d="M100 224Q151 242 193 261T263 302Q300 333 321 375T343 469Q343 495 339 502T327 510Q303 510 276 488T221 428T172 341T136 238T122 130Q122 78 141 56T193 34Q226 34 266 54T345 128L361 120Q341 87 309 56T237
6T149 -14Q108 -14 76 2T27 49T9 127Q9 173 25 227T72 335T145 432T239 503T349 529Q385 529 409 512T433 459Q433 419 411 385T350 322T268 272T179 234T99 208L100 224ZM326 708Q292 683 245 658T149 614L144 628Q214 658 272 707T367 808H385Q397 745 423 702T504
628L500 614Q437 630 398 654T326 708Z" />
<glyph unicode="&#xeb;" horiz-adv-x="442" d="M100 224Q151 242 193 261T263 302Q300 333 321 375T343 469Q343 495 339 502T327 510Q303 510 276 488T221 428T172 341T136 238T122 130Q122 78 141 56T193 34Q226 34 266 54T345 128L361 120Q341 87 309 56T237
6T149 -14Q108 -14 76 2T27 49T9 127Q9 173 25 227T72 335T145 432T239 503T349 529Q385 529 409 512T433 459Q433 419 411 385T350 322T268 272T179 234T99 208L100 224ZM183 677Q183 706 205 727T257 749Q281 749 296 733T312 693Q312 674 302 657T274 631T238
621Q212 621 198 637T183 677ZM400 677Q400 706 422 727T474 749Q499 749 514 733T529 693Q529 674 519 657T492 631T455 621Q430 621 415 637T400 677Z" />
<glyph unicode="&#xec;" horiz-adv-x="309" d="M152 430Q171 488 139 488Q117 488 100 466T64 394L49 352H30L56 426Q71 467 92 489T137 520T185 529Q218 529 234 516T255 482T256 437T244 389L138 85Q128 57 132 42T153 27Q171 27 188 46T226 121L241 162H260L235
89Q220 49 200 27T155 -4T108 -14Q64 -14 47 5T31 58T48 132L152 430ZM479 599Q443 648 416 679T368 733T334 778Q321 801 324 818T342 844Q359 852 377 846T409 817Q422 795 431 767T453 700T492 605L479 599Z" />
<glyph unicode="&#xed;" horiz-adv-x="309" d="M152 430Q171 488 139 488Q117 488 100 466T64 394L49 352H30L56 426Q71 467 92 489T137 520T185 529Q218 529 234 516T255 482T256 437T244 389L138 85Q128 57 132 42T153 27Q171 27 188 46T226 121L241 162H260L235
89Q220 49 200 27T155 -4T108 -14Q64 -14 47 5T31 58T48 132L152 430ZM164 608Q203 658 228 694T271 757T309 804Q327 824 347 827T382 818Q394 805 391 787T367 748Q348 729 321 710T258 666T174 599L164 608Z" />
<glyph unicode="&#xee;" horiz-adv-x="309" d="M152 430Q171 488 139 488Q117 488 100 466T64 394L49 352H30L56 426Q71 467 92 489T137 520T185 529Q218 529 234 516T255 482T256 437T244 389L138 85Q128 57 132 42T153 27Q171 27 188 46T226 121L241 162H260L235
89Q220 49 200 27T155 -4T108 -14Q64 -14 47 5T31 58T48 132L152 430ZM470 708Q436 683 389 658T293 614L288 628Q358 658 416 707T511 808H529Q541 745 567 702T648 628L644 614Q581 630 542 654T470 708Z" />
<glyph unicode="&#xef;" horiz-adv-x="309" d="M152 430Q171 488 139 488Q117 488 100 466T64 394L49 352H30L56 426Q71 467 92 489T137 520T185 529Q218 529 234 516T255 482T256 437T244 389L138 85Q128 57 132 42T153 27Q171 27 188 46T226 121L241 162H260L235
89Q220 49 200 27T155 -4T108 -14Q64 -14 47 5T31 58T48 132L152 430ZM327 677Q327 706 349 727T401 749Q425 749 440 733T456 693Q456 674 446 657T418 631T382 621Q356 621 342 637T327 677ZM544 677Q544 706 566 727T618 749Q643 749 658 733T673 693Q673 674
663 657T636 631T599 621Q574 621 559 637T544 677Z" />
<glyph unicode="&#xf0;" horiz-adv-x="501" d="M324 684L496 760L502 742L338 670L324 684ZM338 669L119 572L113 590L324 683L338 669ZM358 421Q358 518 333 583T266 692T170 765L182 782Q265 752 329 700T428 571T464 393Q464 340 452 284T414 175T354 79T270
11T163 -14Q121 -14 88 3T37 55T18 146Q18 190 30 242T66 344T125 436T204 503T303 528Q334 528 350 518T378 494L371 482Q361 495 345 501T306 508Q276 508 249 482T198 412T159 312T133 199T124 88Q124 44 136 25T173 6Q203 6 231 31T282 100T322 198T348 309T358
421Z" />
<glyph unicode="&#xf1;" horiz-adv-x="588" d="M134 0H29L149 430Q153 443 155 456T154 479T135 488Q115 488 99 468T63 394L48 352H29L54 426Q76 487 108 508T177 529Q209 529 224 516T242 483T243 438T233 389L134 0ZM175 195Q211 291 244 355T310 458T375 512T446
529Q494 529 512 507T530 451T516 378L419 85Q409 58 412 43T434 27Q451 27 468 46T506 121L521 162H540L515 89Q501 47 480 25T435 -5T389 -14Q364 -14 347 -6T321 16Q309 35 312 64T328 132L421 413Q426 428 429 446T428 477T403 491Q381 491 355 469T301 407T245
311T193 192T147 55L175 195ZM328 774Q358 774 377 763T412 738T442 712T481 701Q499 701 516 714T551 759L569 754Q545 693 507 666T431 639Q401 639 382 650T347 675T317 701T279 712Q260 712 243 699T208 654L190 659Q215 721 253 747T328 774Z" />
<glyph unicode="&#xf2;" horiz-adv-x="502" d="M313 509Q284 509 256 483T204 413T160 313T131 199T120 87Q120 45 132 26T169 6Q198 6 226 32T279 102T322 200T351 314T362 428Q362 472 350 490T313 509ZM18 146Q18 190 30 242T67 345T127 437T211 504T319 529Q386
529 425 490T464 369Q464 325 452 273T415 170T355 78T271 11T163 -14Q96 -14 57 26T18 146ZM353 599Q317 648 290 679T242 733T208 778Q195 801 198 818T216 844Q233 852 251 846T283 817Q296 795 305 767T327 700T366 605L353 599Z" />
<glyph unicode="&#xf3;" horiz-adv-x="502" d="M313 509Q284 509 256 483T204 413T160 313T131 199T120 87Q120 45 132 26T169 6Q198 6 226 32T279 102T322 200T351 314T362 428Q362 472 350 490T313 509ZM18 146Q18 190 30 242T67 345T127 437T211 504T319 529Q386
529 425 490T464 369Q464 325 452 273T415 170T355 78T271 11T163 -14Q96 -14 57 26T18 146ZM294 608Q333 658 358 694T401 757T439 804Q457 824 477 827T512 818Q524 805 521 787T497 748Q478 729 451 710T388 666T304 599L294 608Z" />
<glyph unicode="&#xf4;" horiz-adv-x="502" d="M313 509Q284 509 256 483T204 413T160 313T131 199T120 87Q120 45 132 26T169 6Q198 6 226 32T279 102T322 200T351 314T362 428Q362 472 350 490T313 509ZM18 146Q18 190 30 242T67 345T127 437T211 504T319 529Q386
529 425 490T464 369Q464 325 452 273T415 170T355 78T271 11T163 -14Q96 -14 57 26T18 146ZM344 708Q310 683 263 658T167 614L162 628Q232 658 290 707T385 808H403Q415 745 441 702T522 628L518 614Q455 630 416 654T344 708Z" />
<glyph unicode="&#xf5;" horiz-adv-x="502" d="M313 509Q284 509 256 483T204 413T160 313T131 199T120 87Q120 45 132 26T169 6Q198 6 226 32T279 102T322 200T351 314T362 428Q362 472 350 490T313 509ZM18 146Q18 190 30 242T67 345T127 437T211 504T319 529Q386
529 425 490T464 369Q464 325 452 273T415 170T355 78T271 11T163 -14Q96 -14 57 26T18 146ZM315 774Q345 774 364 763T399 738T429 712T468 701Q486 701 503 714T538 759L556 754Q532 693 494 666T418 639Q388 639 369 650T334 675T304 701T266 712Q247 712 230
699T195 654L177 659Q202 721 240 747T315 774Z" />
<glyph unicode="&#xf6;" horiz-adv-x="502" d="M313 509Q284 509 256 483T204 413T160 313T131 199T120 87Q120 45 132 26T169 6Q198 6 226 32T279 102T322 200T351 314T362 428Q362 472 350 490T313 509ZM18 146Q18 190 30 242T67 345T127 437T211 504T319 529Q386
529 425 490T464 369Q464 325 452 273T415 170T355 78T271 11T163 -14Q96 -14 57 26T18 146ZM201 677Q201 706 223 727T275 749Q299 749 314 733T330 693Q330 674 320 657T292 631T256 621Q230 621 216 637T201 677ZM418 677Q418 706 440 727T492 749Q517 749 532
733T547 693Q547 674 537 657T510 631T473 621Q448 621 433 637T418 677Z" />
<glyph unicode="&#xf7;" horiz-adv-x="650" d="M335 499Q342 522 363 538T406 554Q429 554 441 538T446 499Q439 476 418 460T374 444Q352 444 340 460T335 499ZM252 211Q259 234 280 250T323 266Q346 266 358 250T363 211Q356 188 335 172T291 155Q269 155 257
171T252 211ZM84 340L93 370H594L585 340H84Z" />
<glyph unicode="&#xf8;" horiz-adv-x="502" d="M313 509Q284 509 256 483T204 413T160 313T131 199T120 87Q120 45 132 26T169 6Q198 6 226 32T279 102T322 200T351 314T362 428Q362 472 350 490T313 509ZM18 146Q18 190 30 242T67 345T127 437T211 504T319 529Q386
529 425 490T464 369Q464 325 452 273T415 170T355 78T271 11T163 -14Q96 -14 57 26T18 146ZM642 464L742 590L755 579L652 447L642 464ZM643 448L363 55L352 73L633 465L643 448ZM353 55L248 -76L234 -64L342 73L353 55Z" />
<glyph unicode="&#xf9;" horiz-adv-x="577" d="M396 348Q359 244 326 175T261 64T194 4T124 -14Q80 -14 60 5T38 59T51 137L148 430Q158 460 155 474T133 488Q116 488 99 469T61 394L46 353H27L52 426Q67 468 88 490T133 520T178 529Q222 529 239 509T255 456T239
383L146 102Q120 24 164 24Q186 24 212 46T265 111T320 210T372 336T417 482L396 348ZM410 85Q403 59 403 43T423 27Q444 27 461 48T496 121L511 163H530L505 89Q491 48 470 26T426 -5T379 -14Q360 -14 345 -7T321 15Q312 33 314 59T326 126L425 515Q456 516 483
519T534 529L410 85ZM343 599Q307 648 280 679T232 733T198 778Q185 801 188 818T206 844Q223 852 241 846T273 817Q286 795 295 767T317 700T356 605L343 599Z" />
<glyph unicode="&#xfa;" horiz-adv-x="577" d="M396 348Q359 244 326 175T261 64T194 4T124 -14Q80 -14 60 5T38 59T51 137L148 430Q158 460 155 474T133 488Q116 488 99 469T61 394L46 353H27L52 426Q67 468 88 490T133 520T178 529Q222 529 239 509T255 456T239
383L146 102Q120 24 164 24Q186 24 212 46T265 111T320 210T372 336T417 482L396 348ZM410 85Q403 59 403 43T423 27Q444 27 461 48T496 121L511 163H530L505 89Q491 48 470 26T426 -5T379 -14Q360 -14 345 -7T321 15Q312 33 314 59T326 126L425 515Q456 516 483
519T534 529L410 85ZM285 608Q324 658 349 694T392 757T430 804Q448 824 468 827T503 818Q515 805 512 787T488 748Q469 729 442 710T379 666T295 599L285 608Z" />
<glyph unicode="&#xfb;" horiz-adv-x="577" d="M396 348Q359 244 326 175T261 64T194 4T124 -14Q80 -14 60 5T38 59T51 137L148 430Q158 460 155 474T133 488Q116 488 99 469T61 394L46 353H27L52 426Q67 468 88 490T133 520T178 529Q222 529 239 509T255 456T239
383L146 102Q120 24 164 24Q186 24 212 46T265 111T320 210T372 336T417 482L396 348ZM410 85Q403 59 403 43T423 27Q444 27 461 48T496 121L511 163H530L505 89Q491 48 470 26T426 -5T379 -14Q360 -14 345 -7T321 15Q312 33 314 59T326 126L425 515Q456 516 483
519T534 529L410 85ZM334 708Q300 683 253 658T157 614L152 628Q222 658 280 707T375 808H393Q405 745 431 702T512 628L508 614Q445 630 406 654T334 708Z" />
<glyph unicode="&#xfc;" horiz-adv-x="577" d="M396 348Q359 244 326 175T261 64T194 4T124 -14Q80 -14 60 5T38 59T51 137L148 430Q158 460 155 474T133 488Q116 488 99 469T61 394L46 353H27L52 426Q67 468 88 490T133 520T178 529Q222 529 239 509T255 456T239
383L146 102Q120 24 164 24Q186 24 212 46T265 111T320 210T372 336T417 482L396 348ZM410 85Q403 59 403 43T423 27Q444 27 461 48T496 121L511 163H530L505 89Q491 48 470 26T426 -5T379 -14Q360 -14 345 -7T321 15Q312 33 314 59T326 126L425 515Q456 516 483
519T534 529L410 85ZM191 677Q191 706 213 727T265 749Q289 749 304 733T320 693Q320 674 310 657T282 631T246 621Q220 621 206 637T191 677ZM408 677Q408 706 430 727T482 749Q507 749 522 733T537 693Q537 674 527 657T500 631T463 621Q438 621 423 637T408
677Z" />
<glyph unicode="&#xfd;" horiz-adv-x="481" d="M291 47L211 -42L133 428Q128 458 122 469T103 481Q93 481 80 465T48 395L34 354H15L40 427Q61 488 92 508T157 529Q192 529 211 509T239 432L291 47ZM65 -140Q110 -117 159 -78T260 29Q318 102 364 191T430 368Q411
379 392 394T360 430T348 475Q350 501 365 515T405 529Q434 529 447 508T461 445Q461 395 445 338T400 220T336 105T264 3Q243 -23 212 -54T141 -116T53 -166Q26 -178 6 -183T-28 -188Q-52 -188 -68 -176T-85 -142Q-85 -119 -68 -105T-26 -91Q0 -91 22 -105T65
-140ZM251 608Q290 658 315 694T358 757T396 804Q414 824 434 827T469 818Q481 805 478 787T454 748Q435 729 408 710T345 666T261 599L251 608Z" />
<glyph unicode="&#xfe;" horiz-adv-x="562" d="M378 490Q357 490 331 467T279 402T230 309T193 200L215 306Q248 388 280 437T346 507T416 529Q468 529 497 493T527 384Q527 338 514 285T477 179T417 82T335 12T232 -14Q201 -14 177 2T142 47L150 66Q163 36 179
24T218 11Q250 11 280 36T336 105T380 200T410 305T421 404Q421 450 410 470T378 490ZM254 776Q284 778 312 782T364 795L113 -84Q100 -129 123 -144T193 -160L187 -181Q166 -180 127 -179T45 -177Q11 -177 -24 -178T-76 -181L-70 -160Q-34 -160 -18 -147T8 -98L254
776ZM18 355Q57 393 90 431T155 521T219 653L222 637Q201 568 171 517T106 423T29 342L18 355Z" />
<glyph unicode="&#xff;" horiz-adv-x="481" d="M291 47L211 -42L133 428Q128 458 122 469T103 481Q93 481 80 465T48 395L34 354H15L40 427Q61 488 92 508T157 529Q192 529 211 509T239 432L291 47ZM65 -140Q110 -117 159 -78T260 29Q318 102 364 191T430 368Q411
379 392 394T360 430T348 475Q350 501 365 515T405 529Q434 529 447 508T461 445Q461 395 445 338T400 220T336 105T264 3Q243 -23 212 -54T141 -116T53 -166Q26 -178 6 -183T-28 -188Q-52 -188 -68 -176T-85 -142Q-85 -119 -68 -105T-26 -91Q0 -91 22 -105T65
-140ZM158 677Q158 706 180 727T232 749Q256 749 271 733T287 693Q287 674 277 657T249 631T213 621Q187 621 173 637T158 677ZM375 677Q375 706 397 727T449 749Q474 749 489 733T504 693Q504 674 494 657T467 631T430 621Q405 621 390 637T375 677Z" />
<glyph unicode="&#x2013;" horiz-adv-x="715" d="M66 295H650L632 236H49L66 295Z" />
<glyph unicode="&#x2014;" horiz-adv-x="993" d="M65 295H927L910 236H49L65 295Z" />
<glyph unicode="&#x2018;" horiz-adv-x="251" d="M122 535Q122 591 161 643T270 729L275 714Q229 688 200 654T168 582Q181 594 195 601T224 608Q246 608 258 597T270 567Q270 544 256 522T221 486T174 471Q148 471 135 489T122 535Z" />
<glyph unicode="&#x2019;" horiz-adv-x="250" d="M287 655Q287 600 248 547T139 461L134 476Q180 503 209 537T241 608Q228 597 214 590T185 582Q163 582 151 593T139 623Q139 647 153 668T188 704T235 719Q261 719 274 701T287 655Z" />
<glyph unicode="&#x201a;" horiz-adv-x="264" d="M142 59Q142 4 103 -49T-6 -135L-11 -120Q35 -93 64 -59T96 12Q83 1 69 -6T40 -14Q18 -14 6 -3T-6 27Q-6 51 8 72T43 108T90 123Q116 123 129 105T142 59Z" />
<glyph unicode="&#x201c;" horiz-adv-x="422" d="M299 536Q299 592 338 644T447 730L452 715Q406 689 377 655T345 583Q358 595 372 602T401 609Q420 609 429 598T439 568Q439 545 427 523T394 487T351 472Q325 472 312 488T299 536ZM123 536Q123 592 162 644T271
730L276 715Q230 689 201 655T169 583Q181 595 195 602T225 609Q243 609 253 598T263 568Q263 545 251 523T218 487T175 472Q149 472 136 488T123 536Z" />
<glyph unicode="&#x201d;" horiz-adv-x="422" d="M284 658Q284 603 245 550T137 464L132 479Q178 506 207 540T239 611Q226 600 212 593T183 585Q165 585 155 596T145 626Q145 650 157 671T190 707T233 722Q259 722 271 706T284 658ZM461 658Q461 603 422 550T313
464L308 479Q354 506 383 540T415 611Q402 600 388 593T359 585Q341 585 331 596T321 626Q321 650 333 671T366 707T409 722Q435 722 448 706T461 658Z" />
<glyph unicode="&#x201e;" horiz-adv-x="433" d="M134 59Q134 4 95 -49T-13 -135L-18 -120Q28 -93 57 -59T89 12Q76 1 62 -6T33 -14Q15 -14 5 -3T-5 27Q-5 51 7 72T40 108T83 123Q109 123 121 107T134 59ZM311 59Q311 4 272 -49T163 -135L158 -120Q204 -93 233
-59T265 12Q252 1 238 -6T209 -14Q191 -14 181 -3T171 27Q171 51 183 72T216 108T259 123Q285 123 298 107T311 59Z" />
<glyph unicode="&#x2022;" horiz-adv-x="440" d="M66 249Q71 289 93 321T149 372T223 392Q263 392 293 373T340 321T351 249Q347 210 325 178T268 126T194 107Q155 107 125 126T78 177T66 249Z" />
<glyph unicode="&#x2039;" horiz-adv-x="363" d="M335 529Q320 496 295 457T241 376T180 302T122 247Q142 229 162 198T199 128T228 53T247 -14H229Q187 62 137 127T22 244L23 250Q107 306 178 376T317 529H335Z" />
<glyph unicode="&#x203a;" horiz-adv-x="362" d="M115 529Q156 454 206 388T322 270L321 265Q237 209 166 139T27 -14H9Q24 19 49 58T103 138T164 213T221 268Q201 286 182 317T145 387T115 462T97 529H115Z" />
</font>
</defs>
</svg>
